1 сезон

1 сезон

iTunes

1

iTunes

Кинопоиск HD

iTunes

13

1 сезон

RePack

30

Deluxe

ВАЖНО

ИГРА 18+

pack

RePack

MK11
pack

Легкие деньги

RePack

jed

RePack

fifa19

RePack

RDR2

RePack

NEED FOR SPEED™ PAYBACK

4 сезон

9 сезон

Бесстыжие 9 сезон

Все сериалы

все сериалы на PB.wtf

RePack

FAR CRY 5
  
Magnet ссылка

Идентификация / Identity (Джеймс Мэнголд) [2003 г., Мистика, Драма, Триллер, BDRip, Профессиональный двухголосый] piratbit.org

Идентификация через торрент piratbit.org

Размер: 743 MB | Добавлен: 8 лет 5 мес. назад | Торрент скачан:85 раз
Скачать  

16-11-2012 15:03 Идентификация Скачать торрент  

Идентификация / Identity

Год выпуска: 2003
Страна: США
Жанр: Мистика, Драма, Триллер
Продолжительность: 01:30:02
Перевод: Профессиональный двухголосый

Режиссер: Джеймс Мэнголд

Бюджет: $28 000 000
Премьера в мире: 25 апреля 2003



В ролях: Джон Кьюсак, Рэй Лиотта, Аманда Пит, Джон Хоукс, Альфред Молина, Клеа Дюваль, Уильям Ли Скотт, Ребекка Де Морнэй

Описание: Сильный грозовой ливень полностью затопил дороги. 10 совершенно разных людей по вине обстоятельств или, спасаясь от непогоды, собираются в придорожном мотеле, одиноко стоящем посреди пустынной местности. Они не знакомы друг с другом и между ними нет ничего общего. Среди них есть полицейский, перевозивший заключенного, водитель лимузина, высокомерная актриса и проститутка.

Кажется, что между ними нет ничего общего, но их объединяет одна страшная участь. Они это сразу понимают, после того как один за другими невольные постояльцы мотеля начинают погибать от рук неизвестного убийцы. Вокруг ни души, а это означает, что убийца среди них. Не имея возможности вызвать помощь или сбежать, постояльцы могут только ждать следующей жертвы и теряться в догадках о мотивах и личности убийцы.

Качество: BDRip
Формат: AVI
Видео кодек: XviD
Аудио кодек: MP3
Видео: 656x272 (2.41:1), 23.976 fps, XviD build 50 ~1017 kbps avg, 0.24 bit/pixel
Аудио: 48 kHz, MPEG Layer 3, 2 ch, ~128.00 kbps avg

[/url]















Полное имя : D:Идентификация Identity (2003) BDRipIdentifikaciya.(2003) BDRip.avi
Формат : AVI
Формат/Информация : Audio Video Interleave
Размер файла : 743 Мбайт
Продолжительность : 1 ч. 30 м.
Общий поток : 1154 Кбит/сек
Программа кодирования : VirtualDubMod 1.5.10.2 (build 2540/release)
Библиотека кодирования : VirtualDubMod build 2540/release

Видео
Идентификатор : 0
Формат : MPEG-4 Visual
Профиль формата : Advanced Simple@L5
Параметр BVOP формата : 1
Параметр QPel формата : Нет
Параметр GMC формата : Без точки перехода
Параметр матрицы формата : Выборочная
Идентификатор кодека : XVID
Идентификатор кодека/Подсказка : XviD
Продолжительность : 1 ч. 30 м.
Битрейт : 1017 Кбит/сек
Ширина : 656 пикселей
Высота : 272 пикселя
Соотношение сторон : 2,40:1
Частота кадров : 23,976 кадра/сек
Цветовое пространство : YUV
Субдискретизация насыщенности : 4:2:0
Битовая глубина : 8 бит
Тип развёртки : Прогрессивная
Метод сжатия : С потерями
Бит/(Пиксели*Кадры) : 0.238
Размер потока : 655 Мбайт (88%)
Библиотека кодирования : XviD 1.2.1 (UTC 2008-12-04)

Аудио
Идентификатор : 1
Формат : MPEG Audio
Версия формата : Version 1
Профиль формата : Layer 3
Идентификатор кодека : 55
Идентификатор кодека/Подсказка : MP3
Продолжительность : 1 ч. 30 м.
Вид битрейта : Постоянный
Битрейт : 128 Кбит/сек
Каналы : 2 канала
Частота : 48,0 КГц
Метод сжатия : С потерями
Размер потока : 82,4 Мбайт (11%)
Выравнивание : Соединение по промежуткам
Продолжительность промежутка : 42 мс. (1,00 видеокадр)
Время предзагрузки промежутка : 504 мс.
Библиотека кодирования : LAME3.98r
Настройки программы : -m s -V 4 -q 2 -lowpass 17 -b 128


Идентификация скачать торрент


piratbit.org



Скачать Идентификация через торрент http://4.firepic.org/4/images/2012-11/16/g68klory6zvi.jpg Скачать фильм Идентификация через торрент бесплантно в хорошем качестве Описание: Сильный грозовой ливень полностью затопил дороги. 10 совершенно разных людей по вине обстоятельств или, спасаясь от непогоды, ... 9 10 1
Info! Золотая раздача, скачанное не засчитывается.
Торрент: Зарегистрирован [2012-11-16 15:03] · скачан: 85 раз
Статус: √ проверено
Размер: 743 MB
Как cкачать? Как скачать Идентификация через торрент | UTorrent

% Раздел Тема Автор DL S | L
Фильмы [HD 720p, 1080p] (Хороший звук DUB, MVO) [ 15.21 GB ] Идентификация / Identity [2003 BDRip 1080p] 3xMVO 2xDVO 3xAVO Леонид Ильич Скачать
2 | 0
Ultra HD (UHD: 2K, 4K, 8K) — видео сверхвысокой чёткости [ 47.44 GB ] Идентификация Борна / The Bourne Identity [2002 UHD BDRemux 2160p] - [] sheker187 Скачать
1 | 0
Фильмы 2001-2005 [ 1.32 GB ] Идентификация / Identity [2003 DVDRip] chenya28 Скачать
1 | 0
Фильмы 2001-2005 [ 1.74 GB ] Идентификация / Identity [2003 BDRip] DUB|Original|Subs -=BIGBOSS=- Скачать
1 | 0
Фильмы 2001-2005 [ 748 MB ] Идентификация Борна / The Bourne Identity [2002 Германия Чехия HDRip] DUB -=Cherry=- Скачать
1 | 0

28-11-2019 20:33  

Отключить всю рекламу на сайте


    Дорогой пользователь! Огромная просьба, поблагодарите релизера, оцените раздачу и оставьте свои комментарий, если Вы скачали Идентификация через торрент бесплатно! Внесите свою лепту в развитие PiratBit!
    Комментировать посты могут только пользователи прошедшие не сложную регистрацию
    Показать сообщения:    

    Идентификация через торрент
    Скачать бесплатно Идентификация
    Идентификация скачать торрент
    Идентификация смотреть онлайн
    Cкачать фильм Идентификация бесплатно
    Идентификация скачать торрент в хорошем качестве
    Идентификация смотреть онлайн бесплатно в хорошем качестве


    Вы не можете начинать темы
    Вы не можете отвечать на сообщения
    Вы не можете редактировать свои сообщения
    Вы не можете удалять свои сообщения
    Вы не можете голосовать в опросах
    Вы не можете прикреплять файлы к сообщениям
    Вы можете скачивать файлы