2 сезон

iTunes

MVO

1

2 сезон

iTunes

iTunes

1 сезон

RePack

30

Новинка

ВАЖНО

ИГРА 18+

pack

RePack

MK11
pack

Легкие деньги

RePack

jed

RePack

fifa19

RePack

RDR2

RePack

NEED FOR SPEED™ PAYBACK

4 сезон

9 сезон

Бесстыжие 9 сезон

Все сериалы

все сериалы на PB.wtf

RePack

FAR CRY 5

Anonymous, доброе утро, мы не успеваем собрать деньги на оплату серверов за декабрь и январь, помогите нам пожалуйста в это трудное время. В качестве благодарности мы отключим Вам всю рекламу на сайте (укажите свой ник в строку Ваше имя)!

×
  
Magnet ссылка

Поцелуй в голову (Георгий Гаврилов) [2012 г., мелодрама, криминал, DVDRip, Оригинал.лицензия ] piratbit.org

Поцелуй в голову через торрент piratbit.org

Размер: 1.45 GB | Добавлен: 8 лет 2 мес. назад | Торрент скачан:381 раз
Скачать  

17-11-2012 05:37 Поцелуй в голову Скачать торрент  

Поцелуй в голову

Год выпуска: 2012
Страна: Россия / Мостелефильм
Жанр: мелодрама, криминал
Продолжительность: 01:45:34
Перевод: Оригинал
Тип релиза: Лицензия

Режиссер: Георгий Гаврилов
Продюссер: Валентин Опалев, Влад Ряшин, Андрей Тартаков
Сценарий: Алексей Киселёв



В ролях: Денис Рожков, Наталья Рудова, Юрий Осипов, Андрей Тартаков, Александр Тютин, Владислав Дунаев, Сергей Шарифуллин, Александр Тараньжин, Александр Арсентьев, Олег Кныш, Максим Артамонов, Ксения Березина

Описание: Егор, в прошлом чемпион по ралли, работает в службе «трезвый водитель», развозит по домам подвыпивших клиентов. Когда-то он и сам садился пьяным за руль, что однажды привело к трагедии. В ДТП погибла его жена… Судьба сталкивает Егора с Дашей и когда девушке грозит опасность, он, не раздумывая, кидается ей на помощь. Даша оказывается вовлеченной в бандитские разборки, в которых участвует и полицейский — «оборотень» Морозов. Даша помогла своему любимому сбежать из тюрьмы и ради него выкрала деньги из сейфа у беспринципного чиновника-вора. Но Султанов решает убить Дашу, чтобы не делиться с ней деньгами…

Качество: DVDRip
Формат: AVI
Видео кодек: XviD
Аудио кодек: AC3
Видео: 720x384 (1.88:1), 25 fps, XviD build 50 ~1694 kbps avg, 0.25 bit/pixel
Аудио#1: 48 kHz, AC3 Dolby Digital, 3/2 (L,C,R,l,r) + LFE ch, ~256 kbps
Релиз от:

General
Complete name : H:кино 2Poceluj.v.golovu.2012.O.DVDRip.avi
Format : AVI
Format/Info : Audio Video Interleave
File size : 1.45 GiB
Duration : 1h 45mn
Overall bit rate : 1 960 Kbps
Movie name : Poceluj.v.golovu.2012.O.DVDRip.IRONCLUB
Director :
Writing application : VirtualDubModRus 1.5.10.2 (build 2542/release)
Original source form/Name : Movie Trailer
Copyright :

Video
ID : 0
Format : MPEG-4 Visual
Format profile : Advanced Simple@L5
Format settings, BVOP : 2
Format settings, QPel : No
Format settings, GMC : No warppoints
Format settings, Matrix : Custom
Codec ID : XVID
Codec ID/Hint : XviD
Duration : 1h 45mn
Bit rate : 1 694 Kbps
Width : 720 pixels
Height : 384 pixels
Display aspect ratio : 1.875
Frame rate : 25.000 fps
Color space : YUV
Chroma subsampling : 4:2:0
Bit depth : 8 bits
Scan type : Progressive
Compression mode : Lossy
Bits/(Pixel*Frame) : 0.245
Stream size : 1.25 GiB (86%)
Writing library : XviD 1.2.1 (UTC 2008-12-04)

Audio
ID : 1
Format : AC-3
Format/Info : Audio Coding 3
Mode extension : CM (complete main)
Codec ID : 2000
Duration : 1h 45mn
Bit rate mode : Constant
Bit rate : 256 Kbps
Channel(s) : 6 channels
Channel positions : Front: L C R, Side: L R, LFE
Sampling rate : 48.0 KHz
Bit depth : 16 bits
Compression mode : Lossy
Stream size : 193 MiB (13%)
Alignment : Split accross interleaves
Interleave, duration : 40 ms (1.00 video frame)
Interleave, preload duration : 500 ms

piratbit.org



Скачать Поцелуй в голову через торрент http://pic.kartinco.top/images/1/6l6ekq4o62.jpg Скачать фильм Поцелуй в голову через торрент бесплантно в хорошем качестве Описание: Егор, в прошлом чемпион по ралли, работает в службе «трезвый водитель», развозит по домам подвыпивших клиентов. Когда-то он и сам ... 9 10 2
Info! Золотая раздача, скачанное не засчитывается.
Торрент: Зарегистрирован [2012-11-17 05:37] · скачан: 381 раз
Статус: √ проверено
Размер: 1.45 GB
Как cкачать? Как скачать Поцелуй в голову через торрент | UTorrent

% Раздел Тема Автор DL S | L
Наши фильмы 2012 [ 3.9 GB ] Поцелуй в голову [2012 DVB] VanTmX Скачать
1 | 0

28-11-2019 20:33  

Отключить всю рекламу на сайте

17-11-2012 07:40 Поцелуй в голову Скачать торрент  

Неплохой фильм можно посмотреть!piratbit.org



    Дорогой пользователь! Огромная просьба, поблагодарите релизера, оцените раздачу и оставьте свои комментарий, если Вы скачали Поцелуй в голову через торрент бесплатно! Внесите свою лепту в развитие PiratBit!
    Комментировать посты могут только пользователи прошедшие не сложную регистрацию
    Показать сообщения:    

    Поцелуй в голову через торрент
    Скачать бесплатно Поцелуй в голову
    Поцелуй в голову скачать торрент
    Поцелуй в голову смотреть онлайн
    Cкачать фильм Поцелуй в голову бесплатно
    Поцелуй в голову скачать торрент в хорошем качестве
    Поцелуй в голову смотреть онлайн бесплатно в хорошем качестве


    Вы не можете начинать темы
    Вы не можете отвечать на сообщения
    Вы не можете редактировать свои сообщения
    Вы не можете удалять свои сообщения
    Вы не можете голосовать в опросах
    Вы не можете прикреплять файлы к сообщениям
    Вы можете скачивать файлы