2 сезон

iTunes

MVO

1

2 сезон

iTunes

iTunes

1 сезон

RePack

30

Новинка

ВАЖНО

ИГРА 18+

pack

RePack

MK11
pack

Легкие деньги

RePack

jed

RePack

fifa19

RePack

RDR2

RePack

NEED FOR SPEED™ PAYBACK

4 сезон

9 сезон

Бесстыжие 9 сезон

Все сериалы

все сериалы на PB.wtf

RePack

FAR CRY 5

Anonymous, доброй ночи, мы не успеваем собрать деньги на оплату серверов за декабрь и январь, помогите нам пожалуйста в это трудное время. В качестве благодарности мы отключим Вам всю рекламу на сайте (укажите свой ник в строку Ваше имя)!

×
  
Magnet ссылка

Мужчина с гарантией (Артем Аксененко) [2012 г., комедия, семейный, DVDRip-AVC, Оригинал] piratbit.org

Мужчина с гарантией через торрент piratbit.org

Размер: 1.46 GB | Добавлен: 8 лет 3 мес. назад | Торрент скачан:189 раз
Скачать  

19-10-2012 22:50 Мужчина с гарантией Скачать торрент  

Мужчина с гарантией

Год выпуска: 2012
Страна: Россия
Жанр: комедия, семейный
Продолжительность: 01:30:00
Перевод: Оригинал

Режиссер: Артем Аксененко
Продюссер: Георгий Малков, Сарик Андреасян, Гевонд Андреасян
Сценарий: Тихон Корнев

Мировой рейтинг IMDB 6.70 (16)


В ролях: Александр Олешко, Нонна Гришаева, Петр Федоров, Дмитрий Нагиев, Юлия Гришина, Дмитрий Шаракоис, Михаил Павлик, Сергей Походаев, Ольга Волкова, Андрей Федорцов

Описание: В одном большом и любимом горожанами торговом центре работает охранником необычный человек. Он помогает всем вокруг: продавцам общепита и модной одежды, уборщикам и барменам в кафетерии. Он знает всё и всех, и все знают и любят его! Он словно домовой в этом огромном здании с миллионом неоновых вывесок и ярких стеклянных витрин. Ведь здесь он не только работает, но и живет полноценной жизнью — бесплатно одевается, питается в ресторанах, спит в мебельном отделе и участвует в ночных гонках на полотерах. «Какой странный персонаж!» — подумаете вы. На самом деле, у нашего героя есть хрустальная и загадочная мечта, на осуществление которой он старательно копит деньги на «зарплатной» банковской карте.Однажды в его жизни появляется стажерка, которую необходимо обучить всему, что умеет он сам. Отношения, начавшиеся как обременительная обязанность, постепенно начинают перерастать дружеские. Ну а дружба между мужчиной и женщиной вещь весьма специфическая, тут и до романтики недалеко! Однако, герой не знает одной важной детали: эта его «коллега» — владелица всего торгового центра.

Качество: DVDRip-AVC
Формат: MKV
Видео кодек: H.26x
Аудио кодек: AC3
Видео: AVC, 1024x576 (16:9), 25.000 fps, 2 204 Kbps (0.149 bit/pixel)
Аудио#1: AC-3, 48.0 KHz, 6 ch, 384 Kbps, CBR
Релиз от: Seedtank



Format : Matroska
Format version : Version 2
File size : 1.46 GiB
Duration : 1h 20mn
Overall bit rate : 2 588 Kbps
Movie name : -=SEEDTANK=-
Encoded date : UTC 2012-10-19 22:39:03
Writing application : mkvmerge v5.8.0 ('No Sleep / Pillow') built on Sep 2 2012 15:37:04
Writing library : libebml v1.2.3 + libmatroska v1.3.0

Video
ID : 1
Format : AVC
Format/Info : Advanced Video Codec
Format profile : High@L4.1
Format settings, CABAC : Yes
Format settings, ReFrames : 8 frames
Codec ID : V_MPEG4/ISO/AVC
Duration : 1h 20mn
Bit rate : 2 204 Kbps
Width : 1 024 pixels
Height : 576 pixels
Display aspect ratio : 16:9
Frame rate mode : Constant
Frame rate : 25.000 fps
Color space : YUV
Chroma subsampling : 4:2:0
Bit depth : 8 bits
Scan type : Progressive
Bits/(Pixel*Frame) : 0.149
Stream size : 1.21 GiB (83%)
Writing library : x264 core 125 r2208 d9d2288
Encoding settings : cabac=1 / ref=8 / deblock=1:-3:-3 / analyse=0x3:0x133 / me=umh / subme=9 / psy=1 / psy_rd=1.00:0.00 / mixed_ref=1 / me_range=32 / chroma_me=1 / trellis=2 / 8x8dct=1 / cqm=0 / deadzone=21,11 / fast_pskip=0 / chroma_qp_offset=-2 / threads=6 / lookahead_threads=1 / sliced_threads=0 / nr=0 / decimate=1 / interlaced=0 / bluray_compat=0 / constrained_intra=0 / bframes=7 / b_pyramid=2 / b_adapt=2 / b_bias=0 / direct=3 / weightb=1 / open_gop=0 / weightp=2 / keyint=250 / keyint_min=25 / scenecut=40 / intra_refresh=0 / rc=2pass / mbtree=0 / bitrate=2204 / ratetol=1.0 / qcomp=0.60 / qpmin=0 / qpmax=69 / qpstep=4 / cplxblur=20.0 / qblur=0.5 / ip_ratio=1.40 / pb_ratio=1.30 / aq=2:1.00
Default : Yes
Forced : No

Audio
ID : 2
Format : AC-3
Format/Info : Audio Coding 3
Mode extension : CM (complete main)
Format settings, Endianness : Big
Codec ID : A_AC3
Duration : 1h 20mn
Bit rate mode : Constant
Bit rate : 384 Kbps
Channel(s) : 6 channels
Channel positions : Front: L C R, Side: L R, LFE
Sampling rate : 48.0 KHz
Bit depth : 16 bits
Compression mode : Lossy
Stream size : 222 MiB (15%)
Default : Yes
Forced : No

piratbit.org



Скачать Мужчина с гарантией через торрент http://i45.fastpic.ru/big/2012/1018/1e/81da3b207350c932fa15951872161e1e.jpg Скачать фильм Мужчина с гарантией через торрент бесплантно в хорошем качестве Описание: В одном большом и любимом горожанами торговом центре работает охранником необычный человек. Он помогает всем вокруг: продавцам ... 5 10 1
Info! Золотая раздача, скачанное не засчитывается.
Торрент: Зарегистрирован [2012-10-27 13:02] · скачан: 189 раз
Статус: √ проверено
Размер: 1.46 GB
Как cкачать? Как скачать Мужчина с гарантией через торрент | UTorrent

% Раздел Тема Автор DL S | L
Наши фильмы 2012 [ 1.46 GB ] Мужчина с гарантией [2012 BDRip-AVC ] AlexG77 Скачать
1 | 0
Наши фильмы 2012 [ 1.45 GB ] Мужчина с гарантией [2012 BDRip лицензия] byblackmexx Скачать
1 | 0
Наши фильмы 2012 [ 1.37 GB ] Мужчина с гарантией [2012 DVDRip лицензия] Seedtank Скачать
1 | 0
Наши фильмы 2012 [ 1.37 GB ] Мужчина с гарантией [2012 HDRip Оригинал] VadimBird Скачать
1 | 0
Наши фильмы (Blu-ray, BD-Remux, HDDVD) [ 22.74 GB ] Мужчина с гарантией [2012 Blu-ray Оригинал] Pavlin Скачать
1 | 0
Наши фильмы (DVD фильмы) [ 6.93 GB ] Мужчина с гарантией [2012 DVD9] R5 voovaz Скачать
1 | 0

28-11-2019 20:33  

Отключить всю рекламу на сайте

    Дорогой пользователь! Огромная просьба, поблагодарите релизера, оцените раздачу и оставьте свои комментарий, если Вы скачали Мужчина с гарантией через торрент бесплатно! Внесите свою лепту в развитие PiratBit!
    Комментировать посты могут только пользователи прошедшие не сложную регистрацию
    Показать сообщения:    

    Мужчина с гарантией через торрент
    Скачать бесплатно Мужчина с гарантией
    Мужчина с гарантией скачать торрент
    Мужчина с гарантией смотреть онлайн
    Cкачать фильм Мужчина с гарантией бесплатно
    Мужчина с гарантией скачать торрент в хорошем качестве
    Мужчина с гарантией смотреть онлайн бесплатно в хорошем качестве


    Вы не можете начинать темы
    Вы не можете отвечать на сообщения
    Вы не можете редактировать свои сообщения
    Вы не можете удалять свои сообщения
    Вы не можете голосовать в опросах
    Вы не можете прикреплять файлы к сообщениям
    Вы можете скачивать файлы