2 сезон

iTunes

MVO

1

2 сезон

iTunes

iTunes

1 сезон

RePack

30

Новинка

ВАЖНО

ИГРА 18+

pack

RePack

MK11
pack

Легкие деньги

RePack

jed

RePack

fifa19

RePack

RDR2

RePack

NEED FOR SPEED™ PAYBACK

4 сезон

9 сезон

Бесстыжие 9 сезон

Все сериалы

все сериалы на PB.wtf

RePack

FAR CRY 5

Anonymous, добрый день, мы не успеваем собрать деньги на оплату серверов за декабрь и январь, помогите нам пожалуйста в это трудное время. В качестве благодарности мы отключим Вам всю рекламу на сайте (укажите свой ник в строку Ваше имя)!

×
  
Magnet ссылка

Искатели приключений (Максим Воронков) [2012 г., комедия, приключения, DVDRip, Оригинал.лицензия] piratbit.org

Искатели приключений через торрент piratbit.org

Размер: 1.46 GB | Добавлен: 8 лет 2 мес. назад | Торрент скачан:1095 раз
Скачать  

23-11-2012 23:21 Искатели приключений Скачать торрент  

Искатели приключений

Год выпуска: 2012
Страна: Россия
Жанр: комедия, приключения
Продолжительность: 01:41:15
Перевод: Оригинал,лицензия
Тип релиза: Лицензия

Режиссер: Максим Воронков
Продюссер: Юрий Кузнецов-Таёжный
Сценарий: Илья Шиловский, Игорь Тер-Карапетов



В ролях: Валерия Кудрявцева, Анатолий Пашинин, Игорь Гаспарян, Александр Яцко, Владимир Зайцев, Илья Олейников, Александр Семчев, Иннокентий Тарабара, Юрий Кузнецов-Таёжный, Николай Дроздов

Описание: Что может быть опаснее, чем поиски сокровищ? Если ты готов к схваткам с местными гангстерами, погоням и другим острым ощущениям — дерзай! Так и сделали трое азартных друзей — пилот Дэн, гонщик Сергей и красавица Софи, отправившись в экзотический Тайланд на поиски затонувшего сундука с драгоценностями монахов. Следуя указателям на карте, оставленной Софи ее дедушкой, троица зафрахтовав яхту, выходит в открытое море….

Качество: DVDRip
Формат: AVI
Видео кодек: XviD
Аудио кодек: AC3
Видео: 688x400 (1.72:1), 25 fps, XviD build 65 ~1602 kbps avg, 0.23 bit/pixel
Аудио#1: 48 kHz, AC3 Dolby Digital, 3/2 (L,C,R,l,r) + LFE ch, ~448.00 kbps avg


General
Complete name : H:кино 2Iskateli.priklutsheniy.2012.O.DVDRip.avi
Format : AVI
Format/Info : Audio Video Interleave
File size : 1.46 GiB
Duration : 1h 41mn
Overall bit rate : 2 060 Kbps
Writing application : VirtualDubMod 1.5.10.3 | www.virtualdub-fr.org || (build 2550/release)
Writing library : VirtualDubMod build 2550/release

Video
ID : 0
Format : MPEG-4 Visual
Format profile : Advanced Simple@L5
Format settings, BVOP : 1
Format settings, QPel : No
Format settings, GMC : No warppoints
Format settings, Matrix : Custom
Codec ID : XVID
Codec ID/Hint : XviD
Duration : 1h 41mn
Bit rate : 1 603 Kbps
Width : 688 pixels
Height : 400 pixels
Display aspect ratio : 16:9
Frame rate : 25.000 fps
Color space : YUV
Chroma subsampling : 4:2:0
Bit depth : 8 bits
Scan type : Progressive
Compression mode : Lossy
Bits/(Pixel*Frame) : 0.233
Stream size : 1.13 GiB (78%)
Writing library : XviD 65

Audio
ID : 1
Format : AC-3
Format/Info : Audio Coding 3
Mode extension : CM (complete main)
Codec ID : 2000
Duration : 1h 41mn
Bit rate mode : Constant
Bit rate : 448 Kbps
Channel(s) : 6 channels
Channel positions : Front: L C R, Side: L R, LFE
Sampling rate : 48.0 KHz
Bit depth : 16 bits
Compression mode : Lossy
Stream size : 324 MiB (22%)
Alignment : Split accross interleaves
Interleave, duration : 40 ms (1.00 video frame)
Interleave, preload duration : 500 ms

piratbit.org



Скачать Искатели приключений через торрент https://pic.kartinco.top/images/1/88gpodgpww.png Скачать фильм Искатели приключений через торрент бесплантно в хорошем качестве Описание: Что может быть опаснее, чем поиски сокровищ? Если ты готов к схваткам с местными гангстерами, погоням и другим острым ощущениям — ... 7.8 10 4
Info! Золотая раздача, скачанное не засчитывается.
Торрент: Зарегистрирован [2012-11-23 23:22] · скачан: 1 095 раз
Статус: √ проверено
Размер: 1.46 GB
Как cкачать? Как скачать Искатели приключений через торрент | UTorrent

% Раздел Тема Автор DL S | L
Фильмы [HD 720p, 1080p] (Хороший звук DUB, MVO) [ 5.85 GB ] Искатели приключений / Les aventuriers [1967 BDRip 1080p HEVC +MVO+АVO] Мичман37 Скачать
1 | 0
Фильмы [HD 720p, 1080p] (Хороший звук DUB, MVO) [ 15 GB ] Искатели приключений / Les Aventuriers [1967 BDRip 1080p by msltel] DUB MVO AVO msltel Скачать
1 | 0
Фильмы [HD 720p, 1080p] (Хороший звук DUB, MVO) [ 5.16 GB ] Искатели приключений / Les Aventuriers [1967 BDRip 720p by msltel] DUB MVO AVO msltel Скачать
1 | 0
Фильмы до 2000 г. [ 1.45 GB ] Искатели приключений / Les Aventuriers [1967 г BDRip] DUB koenig Скачать
3 | 0
Документальные фильмы и телепередачи [ 583 MB ] Искатели [2017 Документальный история расследование WEBRip Русский] batonchik Скачать
1 | 0
Классика зарубежного кино [ 1.88 GB ] Искатели приключений / Les aventuriers [1967 DVDRip DUB] Alexxx5252 Скачать
1 | 0
Зарубежные сериалы [ 16.79 GB ] Легенда об Искателе / Legend of the Seeker Сезон: 12 [2008-2009 Сериал DVDRip] ShTeCvV Скачать
1 | 0

28-11-2019 20:33  

Отключить всю рекламу на сайте

30-11-2012 14:28 Искатели приключений Скачать торрент  

Нормальный он??)piratbit.org



    Дорогой пользователь! Огромная просьба, поблагодарите релизера, оцените раздачу и оставьте свои комментарий, если Вы скачали Искатели приключений через торрент бесплатно! Внесите свою лепту в развитие PiratBit!
    Комментировать посты могут только пользователи прошедшие не сложную регистрацию
    Показать сообщения:    

    Искатели приключений через торрент
    Скачать бесплатно Искатели приключений
    Искатели приключений скачать торрент
    Искатели приключений смотреть онлайн
    Cкачать фильм Искатели приключений бесплатно
    Искатели приключений скачать торрент в хорошем качестве
    Искатели приключений смотреть онлайн бесплатно в хорошем качестве


    Вы не можете начинать темы
    Вы не можете отвечать на сообщения
    Вы не можете редактировать свои сообщения
    Вы не можете удалять свои сообщения
    Вы не можете голосовать в опросах
    Вы не можете прикреплять файлы к сообщениям
    Вы можете скачивать файлы