1 сезон

1 сезон

iTunes

1

КиноПоиск HD

Кинопоиск HD

iTunes

13

1 сезон

RePack

30

Deluxe

ВАЖНО

ИГРА 18+

pack

RePack

MK11
pack

Легкие деньги

RePack

jed

RePack

fifa19

RePack

RDR2

RePack

NEED FOR SPEED™ PAYBACK

4 сезон

9 сезон

Бесстыжие 9 сезон

Все сериалы

все сериалы на PB.wtf

RePack

FAR CRY 5
  
Magnet ссылка

Одиночка / A Man Apart (Ф. Гэри Грей) [2003 г., боевик, триллер, драма, криминал, HDRip-AVC, DUB + Оригинал] piratbit.org

Одиночка через торрент piratbit.org

Размер: 2.14 GB | Добавлен: 8 лет 5 мес. назад | Торрент скачан:91 раз
Скачать  

24-11-2012 13:13 Одиночка Скачать торрент  

Одиночка / A Man Apart

Год выпуска: 2003
Страна: США [sup] [/sup], Германия [sup] [/sup]
Жанр: боевик, триллер, драма, криминал
Продолжительность: 01:49:36
Перевод: Дубляж + Оригинал

Режиссер: Ф. Гэри Грей
Продюссер: Роберт Джон Дегус, Вин Дизель, Винсент Ньюман
Сценарий: Кристиан Гьюдгэст, Пол Шойринг

Бюджет: $36 000 000
Премьера в мире: 4 апреля 2003





В ролях: Вин Дизель, Лоренц Тейт, Тимоти Олифант, Джино Сильва, Жаклин Обрадорс, Стив Истин, Хуан Фернандес, Джефф Кобер, Марко Родригес, Майк Морофф
Дублировали : Юрий Брежнев, Андрей Бархударов, Всеволод Кузнецов, Валентин Смирнитский, Александр Груздев

Описание: Вин Дизель в роли агента Шона Веттера, оперативника, борющегося с контрабандой наркотиков из Мексики. После того, как глава наркокартели был заключен в тюрьму, появляется новый таинственный персонаж, известный как Дьябло, который берет в свои руки контроль над всем трафиком.Когда в ходе проваленной операции убивают жену Веттера, он и его коллега должны внедриться в преступный картель, чтобы вычислить неуловимого Дьябло.

Качество: HDRip
Формат: MKV
Видео кодек: H.264
Аудио кодек: AC3
Видео: 704 x 296 (2,40:1),23,976fps, AVC MPEG-4 (H.264), ~2038 kbps avg,0.408 bit/pixel
Аудио#1: русский 48 kHz, AC3 Dolby Digital, 3/2 (L,C,R,l,r) + LFE ch, ~384 kbps avg Дубляж
Аудио#2: английский 48 kHz, AC3 Dolby Digital, 3/2 (L,C,R,l,r) + LFE ch, ~384 kbps avg Оригинал
Релиз от:





Общее
Уникальный идентификатор : 205121411373106546202958935347942559139 (0x9A50F2641893D9B59BDBAE26A0D68DA3)
Полное имя : E:ТоррентыPiratbitOdinochka.mkv
Формат : Matroska
Версия формата : Version 2
Размер файла : 2,14 Гбайт
Продолжительность : 1 ч. 49 м.
Общий поток : 2800 Кбит/сек
Дата кодирования : UTC 2012-11-23 17:58:44
Программа кодирования : mkvmerge v4.4.0 ('Die Wiederkehr') сборка от Oct 31 2010 21:52:48
Библиотека кодирования : libebml v1.0.0 + libmatroska v1.0.0

Видео
Идентификатор : 1
Формат : AVC
Формат/Информация : Advanced Video Codec
Профиль формата : High@L4.1
Параметр CABAC формата : Да
Параметр ReFrames формата : 8 кадров
Режим смешивания : Header stripping
Идентификатор кодека : V_MPEG4/ISO/AVC
Продолжительность : 1 ч. 49 м.
Битрейт : 2038 Кбит/сек
Ширина : 704 пикселя
Высота : 296 пикселей
Соотношение сторон : 2,40:1
Частота кадров : 23,976 кадра/сек
Цветовое пространство : YUV
Субдискретизация насыщенности : 4:2:0
Битовая глубина : 8 бит
Тип развёртки : Прогрессивная
Бит/(Пиксели*Кадры) : 0.408
Размер потока : 1,51 Гбайт (71%)
Библиотека кодирования : x264 core 125 r2200 999b753
Настройки программы : cabac=1 / ref=8 / deblock=1:0:0 / analyse=0x3:0x113 / me=hex / subme=7 / psy=1 / psy_rd=1.00:0.00 / mixed_ref=1 / me_range=16 / chroma_me=1 / trellis=1 / 8x8dct=1 / cqm=0 / deadzone=21,11 / fast_pskip=1 / chroma_qp_offset=-2 / threads=6 / lookahead_threads=1 / sliced_threads=0 / nr=0 / decimate=1 / interlaced=0 / bluray_compat=0 / constrained_intra=0 / bframes=8 / b_pyramid=2 / b_adapt=1 / b_bias=0 / direct=1 / weightb=1 / open_gop=0 / weightp=2 / keyint=250 / keyint_min=23 / scenecut=40 / intra_refresh=0 / rc_lookahead=40 / rc=abr / mbtree=1 / bitrate=2038 / ratetol=1.0 / qcomp=0.60 / qpmin=0 / qpmax=69 / qpstep=4 / ip_ratio=1.40 / aq=1:1.00
Default : Да
Forced : Нет

Аудио #1
Идентификатор : 2
Формат : AC-3
Формат/Информация : Audio Coding 3
Расширение режима : CM (complete main)
Параметр Endianness формата : Big
Режим смешивания : Header stripping
Идентификатор кодека : A_AC3
Продолжительность : 1 ч. 49 м.
Вид битрейта : Постоянный
Битрейт : 384 Кбит/сек
Каналы : 6 каналов
Расположение каналов : Front: L C R, Side: L R, LFE
Частота : 48,0 КГц
Битовая глубина : 16 бит
Метод сжатия : С потерями
Размер потока : 301 Мбайт (14%)
Язык : Russian
Default : Да
Forced : Нет

Аудио #2
Идентификатор : 3
Формат : AC-3
Формат/Информация : Audio Coding 3
Расширение режима : CM (complete main)
Параметр Endianness формата : Big
Режим смешивания : Header stripping
Идентификатор кодека : A_AC3
Продолжительность : 1 ч. 49 м.
Вид битрейта : Постоянный
Битрейт : 384 Кбит/сек
Каналы : 6 каналов
Расположение каналов : Front: L C R, Side: L R, LFE
Частота : 48,0 КГц
Битовая глубина : 16 бит
Метод сжатия : С потерями
Размер потока : 301 Мбайт (14%)
Язык : English
Default : Нет
Forced : Нет


Одиночка скачать торрент


piratbit.org



Скачать Одиночка через торрент https://pic1.kartinco.top/images/111/lsy97hscfx.png Скачать фильм Одиночка через торрент бесплантно в хорошем качестве Описание: Вин Дизель в роли агента Шона Веттера, оперативника, борющегося с контрабандой наркотиков из Мексики. После того, как глава ... 5 10 1
Info! Золотая раздача, скачанное не засчитывается.
Торрент: Зарегистрирован [2012-11-24 13:13] · скачан: 91 раз
Статус: √ проверено
Размер: 2.14 GB
Как cкачать? Как скачать Одиночка через торрент | UTorrent

% Раздел Тема Автор DL S | L
Фильмы (HD 720p, 1080p) (48-60 fps) [ 4.95 GB ] Одиночка / A Man Apart [2003 BDRip 720p / 60 FPS ] от R.G. HD-Films slaventi-69 Скачать
3 | 0
Фильмы [HD 720p, 1080p] (Хороший звук DUB, MVO) [ 5.42 GB ] Одиночка / A man apart [2003 BDRip 720p by msltel] DUB DVO 2 x AVO msltel Скачать
1 | 0
Фильмы [HD 720p, 1080p] (Хороший звук DUB, MVO) [ 13.38 GB ] Одиночка / A man apart [2003 BDRip 1080p by msltel] DUB DVO 2 x AVO msltel Скачать
1 | 0
Релизы по Парсеру [Игры, Сериалы и Фильмы и другое...] [ 747 MB ] Одиночка / A Man Apart [2003 HDRip] AVO sanekbest1 Скачать
1 | 0
Фильмы [HD 720p, 1080p] (Хороший звук DUB, MVO) [ 2.16 GB ] Одиночка / A Man Apart [2003 BDRip] ACFIORENTINA Скачать
1 | 0
Фильмы 2001-2005 [ 2.05 GB ] Одиночка / A Man Apart [2003 DVDRip DUB лицензия] DJERG Скачать
1 | 0
Фильмы 2001-2005 [ 1.37 GB ] Одиночка / A man apart [2003 DVDRip] 220v0lt Скачать
1 | 0

28-11-2019 20:33  

Отключить всю рекламу на сайте

24-11-2012 16:17 Одиночка Скачать торрент  

Дизеля уважаю. piratbit.org



    Дорогой пользователь! Огромная просьба, поблагодарите релизера, оцените раздачу и оставьте свои комментарий, если Вы скачали Одиночка через торрент бесплатно! Внесите свою лепту в развитие PiratBit!
    Комментировать посты могут только пользователи прошедшие не сложную регистрацию
    Показать сообщения:    

    Одиночка через торрент
    Скачать бесплатно Одиночка
    Одиночка скачать торрент
    Одиночка смотреть онлайн
    Cкачать фильм Одиночка бесплатно
    Одиночка скачать торрент в хорошем качестве
    Одиночка смотреть онлайн бесплатно в хорошем качестве


    Вы не можете начинать темы
    Вы не можете отвечать на сообщения
    Вы не можете редактировать свои сообщения
    Вы не можете удалять свои сообщения
    Вы не можете голосовать в опросах
    Вы не можете прикреплять файлы к сообщениям
    Вы можете скачивать файлы