Ссылка на приватное зеркало нашего сайта всего за 1$. Внимание количество ограничено!!!

2 сезон

iTunes

iTunes

1

iTunes

iTunes

iTunes

WEBRip

iTunes

30
pack

Вам бонус

ВАЖНО

!!Акция!!

Alien_RageХит недели

RePack

Horizon Zero Dawn

ИГРА 18+

pack

RePack

jed

!!Акция!!

Alien_Rage

RePack

fifa19

RePack

Assassins Creed: Odyssey

RePack

NEED FOR SPEED™ PAYBACK

4 сезон

9 сезон

Бесстыжие 9 сезон

Все сериалы

все сериалы на PB.wtf

RePack

FAR CRY 5
  

Убей меня / You Kill Me (Джон Дал) [2007 г., триллер, мелодрама, комедия, криминал, HDRip-AVC, DUB, лицензия] piratbit.org

Убей меня через торрент piratbit.org

Размер: 1.43 GB | Добавлен: 7 лет 10 мес. назад | Торрент скачан:114 раз
Скачать  

25-11-2012 07:32 Убей меня Скачать торрент  

Убей меня / You Kill Me

«Лучше застрелиться, чем на тебе жениться!»

Год выпуска: 2007
Страна: США
Жанр: триллер, мелодрама, комедия, криминал
Продолжительность: 01:32:38
Перевод: Дубляж, Лицензия

Режиссер: Джон Дал
Продюссер: Кэрол Баум, Аль Корли, Майк Маркус
Сценарий: Кристофер Маркус, Стивен МакФили

Бюджет: $4 000 000
Премьера в мире: 9 февраля 2007



В ролях: Бен Кингсли, Теа Леони, Люк Уилсон, Деннис Фарина, Филип Бейкер Холл, Билл Пуллман, Маркус Томас, Скотт Хейндл, Элисон Сили-Смит, Арон Тэйджер

Роли дублировали: Вячеслав Баранов, Елена Соловьева, Михаил Тихонов, Олег Форостенко, Александр Груздев

Описание: Фрэнк — наемный убийца мафии. Однажды он круто напился и проспал очень важное задание. Твердо решив «завязать», герой начинает посещать курсы анонимных алкоголиков. В Сан-Франциско, куда его ссылают на лечение, Фрэнк встретил такую же одинокую душу и между ними зарождается любовь. Однако напоминает о себе старый заказ — не уничтоженный враг Фрэнки угрожает его близким. Ведь гнусный тип — его будущая жертва — захватил Влacть в городе, и ситуация вышла из-под контроля. Фрэнки решает разобраться с выскочкой. Невеста героя решила тайком «помочь» ему, и в результате рождается своеобразный криминальный дуэт....

Качество: HDRip-AVC
Формат: MKV
Видео кодек: H.264
Аудио кодек: AC3
Видео: 720x 304 (2,35:1),23,976fps, AVC MPEG-4 (H.264), ~1836 kbps avg,0.408 bit/pixel
Аудио: 48 kHz, AC3 Dolby Digital, 3/2 (L,C,R,l,r) + LFE ch, ~384 kbps avg
Релиз от:




Общее
Уникальный идентификатор : 229853151021571971192426464885044065438 (0xACEC1B4C86437B64A2A9D1A1851AB49E)
Полное имя : E:ТоррентыPiratbitUbej menya.mkv
Формат : Matroska
Версия формата : Version 2
Размер файла : 1,43 Гбайт
Продолжительность : 1 ч. 32 м.
Общий поток : 2212 Кбит/сек
Дата кодирования : UTC 2012-11-24 19:03:38
Программа кодирования : mkvmerge v5.6.0 ('Kenya Kane') built on Jun 29 2012 15:01:44
Библиотека кодирования : libebml v1.2.3 + libmatroska v1.3.0

Видео
Идентификатор : 1
Формат : AVC
Формат/Информация : Advanced Video Codec
Профиль формата : High@L4.1
Параметр CABAC формата : Да
Параметр ReFrames формата : 8 кадров
Идентификатор кодека : V_MPEG4/ISO/AVC
Продолжительность : 1 ч. 32 м.
Битрейт : 1836 Кбит/сек
Ширина : 720 пикселей
Высота : 304 пикселя
Соотношение сторон : 2,35:1
Частота кадров : 23,976 кадра/сек
Цветовое пространство : YUV
Субдискретизация насыщенности : 4:2:0
Битовая глубина : 8 бит
Тип развёртки : Прогрессивная
Бит/(Пиксели*Кадры) : 0.350
Размер потока : 1,15 Гбайт (81%)
Библиотека кодирования : x264 core 125 r2200 999b753
Настройки программы : cabac=1 / ref=8 / deblock=1:0:0 / analyse=0x3:0x113 / me=hex / subme=7 / psy=1 / psy_rd=1.00:0.00 / mixed_ref=1 / me_range=16 / chroma_me=1 / trellis=1 / 8x8dct=1 / cqm=0 / deadzone=21,11 / fast_pskip=1 / chroma_qp_offset=-2 / threads=6 / lookahead_threads=1 / sliced_threads=0 / nr=0 / decimate=1 / interlaced=0 / bluray_compat=0 / constrained_intra=0 / bframes=8 / b_pyramid=2 / b_adapt=1 / b_bias=0 / direct=1 / weightb=1 / open_gop=0 / weightp=2 / keyint=250 / keyint_min=23 / scenecut=40 / intra_refresh=0 / rc_lookahead=40 / rc=abr / mbtree=1 / bitrate=1836 / ratetol=1.0 / qcomp=0.60 / qpmin=0 / qpmax=69 / qpstep=4 / ip_ratio=1.40 / aq=1:1.00
Default : Да
Forced : Нет

Аудио
Идентификатор : 2
Формат : AC-3
Формат/Информация : Audio Coding 3
Расширение режима : CM (complete main)
Параметр Endianness формата : Big
Идентификатор кодека : A_AC3
Продолжительность : 1 ч. 32 м.
Вид битрейта : Постоянный
Битрейт : 384 Кбит/сек
Каналы : 6 каналов
Расположение каналов : Front: L C R, Side: L R, LFE
Частота : 48,0 КГц
Битовая глубина : 16 бит
Метод сжатия : С потерями
Размер потока : 254 Мбайт (17%)
Default : Да
Forced : Нет


Убей меня скачать торрент


piratbit.org



Скачать Убей меня через торрент http://pic.kartinco.top/images/1/2s85z3yuwo.png Скачать фильм Убей меня через торрент бесплантно в хорошем качестве Описание: Фрэнк — наемный убийца мафии. Однажды он круто напился и проспал очень важное задание. Твердо решив «завязать», герой начинает ... 5 10 1
Info! Золотая раздача, скачанное не засчитывается.
Торрент: Зарегистрирован [2012-11-25 07:32] · скачан: 114 раз
Статус: √ проверено
Размер: 1.43 GB
Как cкачать? Как скачать Убей меня через торрент | qTorrent

% Раздел Тема Автор DL S | L
Фильмы 2006-2008 [ 1.46 GB ] Убей меня / You Kill Me [2007 DVDRip] vadfro Скачать
1 | 0

28-11-2019 20:33  

Отключить всю рекламу на сайте

    Дорогой пользователь! Огромная просьба, поблагодарите релизера, оцените раздачу и оставьте свои комментарий, если Вы скачали Убей меня через торрент бесплатно! Внесите свою лепту в развитие PiratBit!
    Комментировать посты могут только пользователи прошедшие не сложную регистрацию
    Показать сообщения:    

    Убей меня через торрент
    Скачать бесплатно Убей меня
    Убей меня скачать торрент
    Убей меня смотреть онлайн
    Cкачать фильм Убей меня бесплатно
    Убей меня скачать торрент в хорошем качестве
    Убей меня смотреть онлайн бесплатно в хорошем качестве


    Вы не можете начинать темы
    Вы не можете отвечать на сообщения
    Вы не можете редактировать свои сообщения
    Вы не можете удалять свои сообщения
    Вы не можете голосовать в опросах
    Вы не можете прикреплять файлы к сообщениям
    Вы можете скачивать файлы