2 сезон

iTunes

MVO

1

2 сезон

iTunes

iTunes

1 сезон

RePack

30

Новинка

ВАЖНО

ИГРА 18+

pack

RePack

MK11
pack

Легкие деньги

RePack

jed

RePack

fifa19

RePack

RDR2

RePack

NEED FOR SPEED™ PAYBACK

4 сезон

9 сезон

Бесстыжие 9 сезон

Все сериалы

все сериалы на PB.wtf

RePack

FAR CRY 5

Anonymous, добрый вечер, мы не успеваем собрать деньги на оплату серверов за декабрь и январь, помогите нам пожалуйста в это трудное время. В качестве благодарности мы отключим Вам всю рекламу на сайте (укажите свой ник в строку Ваше имя)!

×
  
Magnet ссылка

Это моя собака (Александр Итыгилов) [2012, Мелодрама, SATRip] piratbit.org

Это моя собака через торрент piratbit.org

Размер: 1.37 GB | Добавлен: 8 лет 1 мес. назад | Торрент скачан:275 раз
Скачать  

26-11-2012 19:26 Это моя собака Скачать торрент  


Это моя собака

Информация о фильме
Название: Это моя собака
Год выхода: 2012
Жанр: Мелодрама
Режиссер: Александр Итыгилов мл.
В ролях: Мария Куликова, Андрей Чернышов, Денис Матросов, Олеся Жураковская
Описание:
Пять лет Ирина безропотно ждала, пока ее возлюбленный Костя разведется с женой и сделает ей предложение. Наконец долгожданный день настал: Константин приглашает Иру в ресторан и торжественно объявляет, что купил обручальные кольца. Вот только второе кольцо предназначается не ей, а дочке начальника. У Ирины сложившаяся ситуация вызывает шок. Не в силах смириться с предательством любимого мужчины она решает наложить на себя руки. У входа в аптеку, куда бедная женщина отправляется за смертельной дозой снотворного, она встречает брошенную собаку. Узнав о том, что несчастную псину везут на живодерню, Ирина проникается к ней жалостью и решает забрать домой...

Страна: Россия, ООО "Бастион"
Продолжительность: 01:29:27
Перевод: Не требуется

Файл
Формат: AVI
Кодек: XviD
Качество: SATRip
Видео: 720x384 (1.88:1), 25 fps, XviD build 64 ~1989 kbps avg, 0.29 bit/pixel
Звук: 48 kHz, MPEG Layer 3, 2 ch, ~192.00 kbps avg


Код:

Общее
Полное имя                               : C:Users.WiW.Desktop.Eto.moya.sobaka.2012.SATRip.KinozalSAT.avi
Формат                                   : AVI
Формат/Информация                        : Audio Video Interleave
Размер файла                             : 1,37 Гбайт
Продолжительность                        : 1 ч. 29 м.
Общий поток                              : 2188 Кбит/сек
Программа кодирования                    : VirtualDubMod 1.5.4.1 (build 2178/release)
Библиотека кодирования                   : VirtualDubMod build 2178/release

Видео
Идентификатор                            : 0
Формат                                   : MPEG-4 Visual
Профиль формата                          : Advanced Simple@L5
Параметр BVOP формата                    : 1
Параметр QPel формата                    : Нет
Параметр GMC формата                     : Без точки перехода
Параметр матрицы формата                 : Выборочная
Идентификатор кодека                     : XVID
Идентификатор кодека/Подсказка           : XviD
Продолжительность                        : 1 ч. 29 м.
Битрейт                                  : 1989 Кбит/сек
Ширина                                   : 720 пикселей
Высота                                   : 384 пикселя
Соотношение сторон                       : 1,85:1
Частота кадров                           : 25,000 кадров/сек
Цветовое пространство                    : YUV
Субдискретизация насыщенности            : 4:2:0
Битовая глубина                          : 8 бит
Тип развёртки                            : Прогрессивная
Метод сжатия                             : С потерями
Бит/(Пиксели*Кадры)                      : 0.288
Размер потока                            : 1,24 Гбайт (91%)
Библиотека кодирования                   : XviD 64

Аудио
Идентификатор                            : 1
Формат                                   : MPEG Audio
Версия формата                           : Version 1
Профиль формата                          : Layer 3
Режим                                    : Joint stereo
Расширение режима                        : MS Stereo
Идентификатор кодека                     : 55
Идентификатор кодека/Подсказка           : MP3
Продолжительность                        : 1 ч. 29 м.
Вид битрейта                             : Постоянный
Битрейт                                  : 192 Кбит/сек
Каналы                                   : 2 канала
Частота                                  : 48,0 КГц
Метод сжатия                             : С потерями
Размер потока                            : 123 Мбайт (9%)
Выравнивание                             : Соединение по промежуткам
Продолжительность промежутка             : 80  мс. (2,00 видеокадра)
Время предзагрузки промежутка            : 504  мс.
Библиотека кодирования                   : LAME3.98r
Настройки программы                      : -m j -V 4 -q 2 -lowpass 18.6 -b 192





piratbit.org



Скачать Это моя собака через торрент http://4.firepic.org/4/images/2012-11/26/n20ijqxznz20.jpg Скачать фильм Это моя собака через торрент бесплантно в хорошем качестве Описание: Пять лет Ирина безропотно ждала, пока ее возлюбленный Костя разведется с женой и сделает ей предложение. Наконец долгожданный ... 10 10 1
Info! Золотая раздача, скачанное не засчитывается.
Торрент: Зарегистрирован [2012-11-26 19:26] · скачан: 275 раз
Статус: √ проверено
Размер: 1.37 GB
Как cкачать? Как скачать Это моя собака через торрент | UTorrent



Последний раз редактировалось: WiW (2012-11-27 17:29), всего редактировалось 3 раз(а)

28-11-2019 20:33  

Отключить всю рекламу на сайте

26-11-2012 19:39 Это моя собака Скачать торрент  

Докатились SATRip уже лицуха!piratbit.org



    Дорогой пользователь! Огромная просьба, поблагодарите релизера, оцените раздачу и оставьте свои комментарий, если Вы скачали Это моя собака через торрент бесплатно! Внесите свою лепту в развитие PiratBit!
    Комментировать посты могут только пользователи прошедшие не сложную регистрацию
    Показать сообщения:    

    Это моя собака через торрент
    Скачать бесплатно Это моя собака
    Это моя собака скачать торрент
    Это моя собака смотреть онлайн
    Cкачать фильм Это моя собака бесплатно
    Это моя собака скачать торрент в хорошем качестве
    Это моя собака смотреть онлайн бесплатно в хорошем качестве


    Вы не можете начинать темы
    Вы не можете отвечать на сообщения
    Вы не можете редактировать свои сообщения
    Вы не можете удалять свои сообщения
    Вы не можете голосовать в опросах
    Вы не можете прикреплять файлы к сообщениям
    Вы можете скачивать файлы