1 сезон

1 сезон

iTunes

1

КиноПоиск HD

Кинопоиск HD

iTunes

13

1 сезон

RePack

30

Deluxe

ВАЖНО

ИГРА 18+

pack

RePack

MK11
pack

Легкие деньги

RePack

jed

RePack

fifa19

RePack

RDR2

RePack

NEED FOR SPEED™ PAYBACK

4 сезон

9 сезон

Бесстыжие 9 сезон

Все сериалы

все сериалы на PB.wtf

RePack

FAR CRY 5
  
Magnet ссылка

Смерть в воде / Dead In The Water (Густаво Липштейн) [2002 г., Триллер, криминал, DVDRip, VO] piratbit.org

Смерть в воде через торрент piratbit.org

Размер: 668 MB | Добавлен: 8 лет 5 мес. назад | Торрент скачан:16 раз
Скачать  

26-11-2012 19:44 Смерть в воде Скачать торрент  

Смерть в воде / Dead In The Water

Год выпуска: 2002
Страна: США
Жанр: Триллер, криминал
Продолжительность: 01:35:10
Перевод: Любительский одноголосый

Режиссер: Густаво Липштейн




В ролях: Хенри Томас, Доминик Суэйн, Скотт Бэйрстоу, Себастьян Де Висенте, Жозе Уилкер, Рената Фронци, Лавиния Власак...

Описание: В знойный летний день очаровательная Глория, живущая в Рио-де-Жанейро, собирается со своим парнем Дэнни и его другом Джеффом на морскую прогулку. Но отец уговаривает ее взять с собой Маркоса, сына влиятельного магната, от которого зависит их финансовое будущее.

Незнакомец оказывается юным, красивым и сексуальным, и вскоре на борту лодки воцаряется гнетущая атмосфера ревности и неприязни. В конце концов, взбешенный Дэнни толкает не умеющего плавать Маркоса за борт, бросает ему спасательный круг и уплывает, но затем возвращается, опасаясь самого худшего. И не зря - Маркос исчез. Не желая отвечать за жестокое убийство, друзья пытаются понять, что произошло, попутно стараясь свалить вину друг на друга. Но все попытки выпутаться незапятнанными из щекотливой ситуации лишь приближают их к трагической развязке, которая не могла присниться им даже в самом страшном сне

Качество: DVDRip
Формат: AVI
Видео кодек: XviD
Аудио кодек: MP3
Видео: DivX 3, 512x384, 25.00fps ,870Kbps
Аудио#1: MPEG Audio Layer 3, 48000Hz stereo, 97Kbps






D:flt-acpcSmert_v_vode.avi
General
Complete name : D:flt-acpcSmert_v_vode.avi
Format : AVI
Format/Info : Audio Video Interleave
File size : 668 MiB
Duration : 1h 35mn
Overall bit rate mode : Variable
Overall bit rate : 981 Kbps
Writing application : Nandub v0.29.1
Writing library : Nandub build 1790/release
Video #0
ID : 0
Format : MPEG-4 Visual
Codec ID : DIV3
Codec ID/Hint : DivX 3 Low
Duration : 1h 35mn
Bit rate : 871 Kbps
Width : 512 pixels
Height : 384 pixels
Display aspect ratio : 4:3
Frame rate : 25.000 fps
Color space : YUV
Chroma subsampling : 4:2:0
Bit depth : 8 bits
Compression mode : Lossy
Bits/(Pixel*Frame) : 0.177
Stream size : 593 MiB (89%)
Audio #1
ID : 1
Format : MPEG Audio
Format version : Version 1
Format profile : Layer 3
Mode : Joint stereo
Codec ID : 55
Codec ID/Hint : MP3
Duration : 1h 35mn
Bit rate mode : Variable
Bit rate : 97.3 Kbps
Channel(s) : 2 channels
Sampling rate : 48.0 KHz
Compression mode : Lossy
Delay relative to video : 21ms
Stream size : 66.2 MiB (10%)
Alignment : Aligned on interleaves
Interleave, duration : 24 ms (0.60 video frame)
Interleave, preload duration : 273 ms

piratbit.org



Скачать Смерть в воде через торрент http://i48.fastpic.ru/big/2012/1126/17/56cb14bc9b725a8ff42cd91fcc79ce17.jpg Скачать фильм Смерть в воде через торрент бесплантно в хорошем качестве Описание: В знойный летний день очаровательная Глория, живущая в Рио-де-Жанейро, собирается со своим парнем Дэнни и его другом Джеффом на ... 5 10 1
Info! Золотая раздача, скачанное не засчитывается.
Торрент: Зарегистрирован [2012-11-26 19:44] · скачан: 16 раз
Статус: √ проверено
Размер: 668 MB
Как cкачать? Как скачать Смерть в воде через торрент | UTorrent

28-11-2019 20:33  

Отключить всю рекламу на сайте


    Дорогой пользователь! Огромная просьба, поблагодарите релизера, оцените раздачу и оставьте свои комментарий, если Вы скачали Смерть в воде через торрент бесплатно! Внесите свою лепту в развитие PiratBit!
    Комментировать посты могут только пользователи прошедшие не сложную регистрацию
    Показать сообщения:    

    Смерть в воде через торрент
    Скачать бесплатно Смерть в воде
    Смерть в воде скачать торрент
    Смерть в воде смотреть онлайн
    Cкачать фильм Смерть в воде бесплатно
    Смерть в воде скачать торрент в хорошем качестве
    Смерть в воде смотреть онлайн бесплатно в хорошем качестве


    Вы не можете начинать темы
    Вы не можете отвечать на сообщения
    Вы не можете редактировать свои сообщения
    Вы не можете удалять свои сообщения
    Вы не можете голосовать в опросах
    Вы не можете прикреплять файлы к сообщениям
    Вы можете скачивать файлы