2 сезон

iTunes

MVO

1

2 сезон

iTunes

iTunes

1 сезон

RePack

30

Новинка

ВАЖНО

ИГРА 18+

pack

RePack

MK11
pack

Легкие деньги

RePack

jed

RePack

fifa19

RePack

RDR2

RePack

NEED FOR SPEED™ PAYBACK

4 сезон

9 сезон

Бесстыжие 9 сезон

Все сериалы

все сериалы на PB.wtf

RePack

FAR CRY 5

Anonymous, доброе утро, мы не успеваем собрать деньги на оплату серверов за декабрь и январь, помогите нам пожалуйста в это трудное время. В качестве благодарности мы отключим Вам всю рекламу на сайте (укажите свой ник в строку Ваше имя)!

×
  
Magnet ссылка

Оружие (Александр Рогожкин) [2012 г., боевик, криминал, DVDRip, Оригинал,лицензия] piratbit.org

Оружие через торрент piratbit.org

Размер: 1.37 GB | Добавлен: 8 лет 1 мес. назад | Торрент скачан:538 раз
Скачать  

01-12-2012 03:23 Оружие Скачать торрент  

Оружие

Год выпуска: 2012
Страна: Россия / Триикс Медиа
Жанр: боевик, криминал
Продолжительность: 01:25:16
Перевод: Оригинал,Лицензия
Тип релиза: Лицензия

Режиссер: Александр Рогожкин



В ролях: Илья Носков, Дмитрий Паламарчук, Светлана Щедрина, Антон Богров, Антон Пулит, Сергей Галич, Эльдар Лебедев, Алексей Осипов, Эрик Кения, Сергей Рублёв

Описание: «О. Р. У. Ж. И. Е» - это аббревиатура из имен друзей: О - Олег, военный пенсионер, Р — Роман, ученый, сотрудник НИИ, У - Ульяна, телевизионный корреспондент, Ж - Женя, физик, доктор наук, И - Игорь, предприниматель, бывший репортер, муж Ульяны, Е - Егор, лаборант провинциального научного центра. Олег и Роман испытывают новейшее оружие - винтовку, обладающую исключительной дальнобойностью и разрушительной силой. Испытания проходят удачно, и Олег пытается заинтересовать этим оружием военных.

Качество: DVDRip
Формат: AVI
Видео кодек: XviD
Аудио кодек: AC3
Видео: XviD, 1841 kb/s, 720x384, 25.000 fps
Аудио#1: AC3, 448 kb/s ,6 ch, 48.0 KHz

General
Complete name : H:кино 2Oruzhie.2012.O.DVDRip.avi
Format : AVI
Format/Info : Audio Video Interleave
File size : 1.37 GiB
Duration : 1h 25mn
Overall bit rate : 2 300 Kbps
Movie name : Oruzhie.2011.O.DVDRip.IRONCLUB
Director :
Writing application : VirtualDubModRus 1.5.10.2 (build 2542/release)
Original source form/Name : Movie
Copyright :

Video
ID : 0
Format : MPEG-4 Visual
Format profile : Advanced Simple@L5
Format settings, BVOP : 2
Format settings, QPel : No
Format settings, GMC : No warppoints
Format settings, Matrix : Custom
Codec ID : XVID
Codec ID/Hint : XviD
Duration : 1h 25mn
Bit rate : 1 842 Kbps
Width : 720 pixels
Height : 384 pixels
Display aspect ratio : 1.875
Frame rate : 25.000 fps
Color space : YUV
Chroma subsampling : 4:2:0
Bit depth : 8 bits
Scan type : Progressive
Compression mode : Lossy
Bits/(Pixel*Frame) : 0.266
Stream size : 1.10 GiB (80%)
Writing library : XviD 1.2.1 (UTC 2008-12-04)

Audio
ID : 1
Format : AC-3
Format/Info : Audio Coding 3
Mode extension : CM (complete main)
Codec ID : 2000
Duration : 1h 25mn
Bit rate mode : Constant
Bit rate : 448 Kbps
Channel(s) : 6 channels
Channel positions : Front: L C R, Side: L R, LFE
Sampling rate : 48.0 KHz
Bit depth : 16 bits
Compression mode : Lossy
Stream size : 273 MiB (19%)
Alignment : Split accross interleaves
Interleave, duration : 40 ms (1.00 video frame)
Interleave, preload duration : 500 ms

piratbit.org



Скачать Оружие через торрент http://pic.kartinco.top/images/1/3q4g5wq8sd.jpg Скачать фильм Оружие через торрент бесплантно в хорошем качестве Описание: «О. Р. У. Ж. И. Е» - это аббревиатура из имен друзей: О - Олег, военный пенсионер, Р — Роман, ученый, сотрудник НИИ, У - Ульяна, ... 9 10 2
Info! Золотая раздача, скачанное не засчитывается.
Торрент: Зарегистрирован [2012-12-01 03:23] · скачан: 538 раз
Статус: √ проверено
Размер: 1.37 GB
Как cкачать? Как скачать Оружие через торрент | UTorrent

% Раздел Тема Автор DL S | L
Азиатские фильмы [ 2.18 GB ] Стрела. Абсолютное оружие / Choi-jong-byeong-gi Hwal [2011 история HDRip AVO одноголосый ] PsYcho Скачать
1 | 0
Сборники (HD Video) [ 29.92 GB ] Смертельное оружие: Коллекция + Доп. материлы / Lethal Weapon: Collection + Supplements [1987-1998 BDRip 720p] jb_alex Скачать
1 | 0
Военное дело [ 9.56 GB ] Магия оружия / Американский стрелок / American shooter / 49 серий [1994-2000 оружие охота научно-популярный развлекательный SATRip VO] markfiter Скачать
1 | 0
Сборники на DVD и Сиквелы [DVDrip, WEB-DLRip, HDrip, BDRip] [ 8.21 GB ] Смертельное оружие 1234 / Lethal weapon 1234 [1987-1998 DVDRip] rza_86 Скачать
1 | 0
Дополнения к играм [ 426 MB ] Counter-Strike: Source Модели Оружия Игроков Карты из CS GO. 2013RU Дополнение] kroll13 Скачать
1 | 0
Зарубежные сериалы [ 14.08 GB ] Братья по оружию / Band of Brothers [2001 военный история биография] war22200 Скачать
1 | 0
Фильмы до 2000 г. [ 1.31 GB ] Совершенное оружие / The perfect weapon [1991; боевые искусства; DVDRip] nobana Скачать
1 | 0

28-11-2019 20:33  

Отключить всю рекламу на сайте

01-12-2012 04:13 Оружие Скачать торрент  

Хороший фильм.Спаибо за раздачуpiratbit.org



01-12-2012 07:41 Оружие Скачать торрент  

норма но неоченьpiratbit.org



01-12-2012 08:51 Оружие Скачать торрент  

Короткометражка!Нормальный фильм идёт не менее двух часов!piratbit.org



    Дорогой пользователь! Огромная просьба, поблагодарите релизера, оцените раздачу и оставьте свои комментарий, если Вы скачали Оружие через торрент бесплатно! Внесите свою лепту в развитие PiratBit!
    Комментировать посты могут только пользователи прошедшие не сложную регистрацию
    Показать сообщения:    

    Оружие через торрент
    Скачать бесплатно Оружие
    Оружие скачать торрент
    Оружие смотреть онлайн
    Cкачать фильм Оружие бесплатно
    Оружие скачать торрент в хорошем качестве
    Оружие смотреть онлайн бесплатно в хорошем качестве


    Вы не можете начинать темы
    Вы не можете отвечать на сообщения
    Вы не можете редактировать свои сообщения
    Вы не можете удалять свои сообщения
    Вы не можете голосовать в опросах
    Вы не можете прикреплять файлы к сообщениям
    Вы можете скачивать файлы