Marvel's Avengers Deluxe Edition (супер цена) 159р. Внимание количество ограничено!!!

2 сезон

iTunes

iTunes

1

iTunes

iTunes

iTunes

WEBRip

iTunes

30
pack

Новость дня

ВАЖНО

!!Акция!!

Alien_RageХит недели

RePack

Horizon Zero Dawn

ИГРА 18+

pack

RePack

jed

!!Акция!!

Alien_Rage

RePack

fifa19

RePack

Assassins Creed: Odyssey

RePack

NEED FOR SPEED™ PAYBACK

4 сезон

9 сезон

Бесстыжие 9 сезон

Все сериалы

все сериалы на PB.wtf

RePack

FAR CRY 5
  

16 кварталов / 16 Blocks (Ричард Доннер) [2006 г., боевик, триллер, драма, криминал, HDRip-AVC, DUB + Оригинал] piratbit.org

16 кварталов через торрент piratbit.org

Размер: 1.99 GB | Добавлен: 7 лет 9 мес. назад | Торрент скачан:53 раза
Скачать  

01-12-2012 07:28 16 кварталов Скачать торрент  

16 кварталов / 16 Blocks

Год выпуска: 2006
Страна: Германия [sup][img]http://pic.kartinco.top/images/1/sdrcvyecjv.gif [/img][/sup], США [sup] [/sup]
Жанр: боевик, триллер, драма, криминал
Продолжительность: 01:37:26
Перевод: Дубляж + Оригинал


Режиссер: Ричард Доннер
Продюссер: Рэндолл Эмметт, Авэ Лернер, Арнольд Рифкин
Сценарий: Ричард Уэнк

Бюджет: $52 000 000
Премьера в мире: 1 марта 2006



В ролях: Брюс Уиллис, Мос Деф, Дэвид Морс, Дженна Штерн, Кейси Сэндер, Силк Козарт, Дэвид Зайас, Роберт Раски, Патрик Гэрроу, Саша Ройз
Роли дублировали : Александр Рахленко, Вячеслав Баранов, Владимир Антоник, Ольга Шорохова, Никита Прозоровский

Описание: 16 кварталов — это расстояние от полицейского участка до здания суда в одном из районов Нью-Йорка. 16 кварталов должны преодолеть полицейский и свидетель, которому предстоит давать показания в суде.
Полицейский Джек Мосли — белый, немолодой, усталый, молчаливый, почти спившийся, почти продажный, но все-таки еще сохранивший в себе и остатки самоуважения, и остатки профессионального кодекса чести. Свидетель Эдди Банкер — полная противоположность Джека: чернокожий шустрый болтун, который и сам не рад той передряге, что устроила ему судьба.
Джек и Эдди должны пройти и проехать всего 16 городских кварталов, но каким долгим, каким опасным, каким смертоносным окажется этот путь!.
.

Качество: HDRip-AVC
Формат: MKV
Видео кодек: H.264
Аудио кодек: AC3
Видео: 720x 400 (16:9),25,000fps, AVC MPEG-4 (H.264), ~2168 kbps avg,0.301 bit/pixel
Аудио#1: русский 48 kHz, AC3 Dolby Digital, 3/2 (L,C,R,l,r) + LFE ch, ~384 kbps avg Дубляж
Аудио#2: английский 48 kHz, AC3 Dolby Digital, 3/2 (L,C,R,l,r) + LFE ch, ~384 kbps avg Оригинал

Автор рипа:





Общее
Уникальный идентификатор : 193747456633850011249472215148254349713 (0x91C26720642337B99D7AAF8584664991)
Полное имя : E:ТоррентыPiratbit16 kvartalov.mkv
Формат : Matroska
Версия формата : Version 2
Размер файла : 1,99 Гбайт
Продолжительность : 1 ч. 37 м.
Общий поток : 2930 Кбит/сек
Дата кодирования : UTC 2012-11-29 13:53:45
Программа кодирования : mkvmerge v4.4.0 ('Die Wiederkehr') сборка от Oct 31 2010 21:52:48
Библиотека кодирования : libebml v1.0.0 + libmatroska v1.0.0

Видео
Идентификатор : 1
Формат : AVC
Формат/Информация : Advanced Video Codec
Профиль формата : High@L4.1
Параметр CABAC формата : Да
Параметр ReFrames формата : 8 кадров
Режим смешивания : Header stripping
Идентификатор кодека : V_MPEG4/ISO/AVC
Продолжительность : 1 ч. 37 м.
Битрейт : 2168 Кбит/сек
Ширина : 720 пикселей
Высота : 400 пикселей
Соотношение сторон : 16:9
Частота кадров : 25,000 кадров/сек
Цветовое пространство : YUV
Субдискретизация насыщенности : 4:2:0
Битовая глубина : 8 бит
Тип развёртки : Прогрессивная
Бит/(Пиксели*Кадры) : 0.301
Размер потока : 1,43 Гбайт (72%)
Библиотека кодирования : x264 core 125 r2200 999b753
Настройки программы : cabac=1 / ref=8 / deblock=1:0:0 / analyse=0x3:0x113 / me=hex / subme=7 / psy=1 / psy_rd=1.00:0.00 / mixed_ref=1 / me_range=16 / chroma_me=1 / trellis=1 / 8x8dct=1 / cqm=0 / deadzone=21,11 / fast_pskip=1 / chroma_qp_offset=-2 / threads=6 / lookahead_threads=1 / sliced_threads=0 / nr=0 / decimate=1 / interlaced=0 / bluray_compat=0 / constrained_intra=0 / bframes=8 / b_pyramid=2 / b_adapt=1 / b_bias=0 / direct=1 / weightb=1 / open_gop=0 / weightp=2 / keyint=250 / keyint_min=25 / scenecut=40 / intra_refresh=0 / rc_lookahead=40 / rc=abr / mbtree=1 / bitrate=2168 / ratetol=1.0 / qcomp=0.60 / qpmin=0 / qpmax=69 / qpstep=4 / ip_ratio=1.40 / aq=1:1.00
Default : Да
Forced : Нет

Аудио #1
Идентификатор : 2
Формат : AC-3
Формат/Информация : Audio Coding 3
Расширение режима : CM (complete main)
Параметр Endianness формата : Big
Режим смешивания : Header stripping
Идентификатор кодека : A_AC3
Продолжительность : 1 ч. 37 м.
Вид битрейта : Постоянный
Битрейт : 384 Кбит/сек
Каналы : 6 каналов
Расположение каналов : Front: L C R, Side: L R, LFE
Частота : 48,0 КГц
Битовая глубина : 16 бит
Метод сжатия : С потерями
Размер потока : 268 Мбайт (13%)
Язык : Russian
Default : Да
Forced : Нет

Аудио #2
Идентификатор : 3
Формат : AC-3
Формат/Информация : Audio Coding 3
Расширение режима : CM (complete main)
Параметр Endianness формата : Big
Режим смешивания : Header stripping
Идентификатор кодека : A_AC3
Продолжительность : 1 ч. 37 м.
Вид битрейта : Постоянный
Битрейт : 384 Кбит/сек
Каналы : 6 каналов
Расположение каналов : Front: L C R, Side: L R, LFE
Частота : 48,0 КГц
Битовая глубина : 16 бит
Метод сжатия : С потерями
Размер потока : 268 Мбайт (13%)
Язык : English
Default : Нет
Forced : Нет


16 кварталов скачать торрент


piratbit.org



Скачать 16 кварталов через торрент http://pic.kartinco.top/images/1/fymzetoxj9.png Скачать фильм 16 кварталов через торрент бесплантно в хорошем качестве Описание: 16 кварталов — это расстояние от полицейского участка до здания суда в одном из районов Нью-Йорка. 16 кварталов должны преодолеть ... 10 10 1
Info! Золотая раздача, скачанное не засчитывается.
Торрент: Зарегистрирован [2012-12-01 07:28] · скачан: 53 раз
Статус: √ проверено
Размер: 1.99 GB
Как cкачать? Как скачать 16 кварталов через торрент | qTorrent

% Раздел Тема Автор DL S | L
Фильмы (Blu-ray, BD-Remux, HDDVD) [ 19.5 GB ] 16 кварталов / 16 Blocks [2006 BD-Remux ] _KaisiK_ Скачать
1 | 0
Фильмы 2006-2008 [ 1.48 GB ] 16 кварталов / 16 Blocks [2006 DVDRip лицензия] Sудья Скачать
1 | 0
Фильмы 2006-2008 [ 1.86 GB ] 16 кварталов / 16 Blocks [2006 ... DVDRip лицензия] kuvagen Скачать
1 | 0

28-11-2019 20:33  

Отключить всю рекламу на сайте

01-12-2012 07:56 16 кварталов Скачать торрент  

только мне помнится этот фильм по другому как-то называется ?!piratbit.org



01-12-2012 08:27 16 кварталов Скачать торрент  

lev1244v
На нашем трекере ЗАПРЕЩАЕТСЯ
*Использовать анимацию, Агитацию, Радугу, слишком крупный или наоборот слишком мелкий шрифт, а так же растягивать или наоборот сужать раздачу.
Правила раздела Фильмы. Как правильно оформить раздачу фильма
piratbit.org



01-12-2012 11:34 16 кварталов Скачать торрент  

lehin писал(а):

только мне помнится этот фильм по другому как-то называется ?!

Помню по старости лет именно это название. :pirat:piratbit.org



    Дорогой пользователь! Огромная просьба, поблагодарите релизера, оцените раздачу и оставьте свои комментарий, если Вы скачали 16 кварталов через торрент бесплатно! Внесите свою лепту в развитие PiratBit!
    Комментировать посты могут только пользователи прошедшие не сложную регистрацию
    Показать сообщения:    

    16 кварталов через торрент
    Скачать бесплатно 16 кварталов
    16 кварталов скачать торрент
    16 кварталов смотреть онлайн
    Cкачать фильм 16 кварталов бесплатно
    16 кварталов скачать торрент в хорошем качестве
    16 кварталов смотреть онлайн бесплатно в хорошем качестве


    Вы не можете начинать темы
    Вы не можете отвечать на сообщения
    Вы не можете редактировать свои сообщения
    Вы не можете удалять свои сообщения
    Вы не можете голосовать в опросах
    Вы не можете прикреплять файлы к сообщениям
    Вы можете скачивать файлы