Ссылка на приватное зеркало нашего сайта всего за 1$. Внимание количество ограничено!!!

2 сезон

iTunes

iTunes

1

iTunes

iTunes

iTunes

WEBRip

iTunes

30
pack

Забери бонус

ВАЖНО

!!Акция!!

Alien_RageХит недели

RePack

RESIDENT EVIL 3: NEMESIS REMAKE

ИГРА 18+

pack

RePack

jed

!!Акция!!

Alien_Rage

RePack

fifa19

RePack

Assassins Creed: Odyssey

RePack

NEED FOR SPEED™ PAYBACK

4 сезон

9 сезон

Бесстыжие 9 сезон

Все сериалы

все сериалы на PB.wtf

RePack

FAR CRY 5
  

План игры / The Game Plan (Энди Фикмен) [2007 г., комедия, семейный, спорт, BDRip, DUB + Mногоголосый (UKR)] piratbit.org

План игры через торрент piratbit.org

Размер: 1.41 GB | Добавлен: 7 лет 9 мес. назад | Торрент скачан:346 раз
Скачать  

02-12-2012 14:05 План игры Скачать торрент  

План игры / The Game Plan
«У него превосходный план игры. Но есть одна проблема...»
Год выпуска: 2007
Страна: США
Жанр: комедия, семейный, спорт
Продолжительность: 01:50:14
Перевод: Дубляж + Профессиональный (многоголосый закадровый)-(Украинский - ICTV)

Режиссер: Энди Фикмен
Продюссер: Марк Кьярди, Гордон Грэй, Пит ДеСтефано
Сценарий: Николь Миллард, Кэтрин Прайс, Одри Уэллс

Бюджет: $22 000 000
Премьера в мире: 23 сентября 2007




В ролях: Дуэйн Джонсон, Мэдисон Петтис, Кира Седжвик, Розелин Санчез, Моррис Честнат, Хэйес МакАртур, Брайан Дж. Уайт, Джамал Дафф, Пейдж Турко, Таббс

Описание: Профессиональный игрок в американский футбол внезапно узнает о существовании своей дочери. Появившаяся откуда не возьмись дочурка помогает спортсмену переквалифицироваться из отвязного холостяка в образцово-показательного папашу.

Качество: BDRip (Исходник - BDRemux)
Формат: AVI
Видео кодек: XviD
Аудио кодек: AC3
Видео: Видео: 720х304 (2,35:1), 23,976 fps, 1429 kbps, 0.272 bit/pixel
Аудио#1: 48 kHz, AC3 2.0, 192.00 kbps / Дубляж (Русский)
Аудио#2: 48 kHz, AC3 2.0, 192.00 kbps / Профессиональный (многоголосый закадровый)-(Украинский - "Так Треба Продакшин" по заказу ICTV)
&
Общее
Полное имя : E:Фильмы МThe Game Plan (2007) BDRip (Rus. Ukr).avi
Формат : AVI
Формат/Информация : Audio Video Interleave
Размер файла : 1,41 Гбайт
Продолжительность : 1 ч. 50 м.
Общий поток : 1827 Кбит/сек
Название фильма : План игры / The Game Plan (2007) BDRip
Программа кодирования : VirtualDubModRus 1.5.10.2 (build 2542/release)
Библиотека кодирования : VirtualDubMod build 2542/release
Правообладатель : rip by maygli

Видео
Идентификатор : 0
Формат : MPEG-4 Visual
Профиль формата : Advanced Simple@L5
Параметр BVOP формата : 1
Параметр QPel формата : Нет
Параметр GMC формата : Без точки перехода
Параметр матрицы формата : Выборочная
Режим смешивания : Сжатый битовый поток
Идентификатор кодека : XVID
Идентификатор кодека/Подсказка : XviD
Продолжительность : 1 ч. 50 м.
Битрейт : 1429 Кбит/сек
Ширина : 720 пикселей
Высота : 304 пикселя
Соотношение сторон : 2,35:1
Частота кадров : 23,976 кадра/сек
Цветовое пространство : YUV
Субдискретизация насыщенности : 4:2:0
Битовая глубина : 8 бит
Тип развёртки : Прогрессивная
Метод сжатия : С потерями
Бит/(Пиксели*Кадры) : 0.272
Размер потока : 1,10 Гбайт (78%)
Библиотека кодирования : XviD 65

Аудио #1
Идентификатор : 1
Формат : AC-3
Формат/Информация : Audio Coding 3
Расширение режима : CM (complete main)
Параметр Endianness формата : Big
Идентификатор кодека : 2000
Продолжительность : 1 ч. 50 м.
Вид битрейта : Постоянный
Битрейт : 192 Кбит/сек
Каналы : 2 канала
Расположение каналов : Front: L R
Частота : 48,0 КГц
Битовая глубина : 16 бит
Метод сжатия : С потерями
Размер потока : 151 Мбайт (11%)
Выравнивание : Разделение по промежуткам
Продолжительность промежутка : 42 мс. (1,00 видеокадр)
Время предзагрузки промежутка : 500 мс.

Аудио #2
Идентификатор : 2
Формат : AC-3
Формат/Информация : Audio Coding 3
Расширение режима : CM (complete main)
Параметр Endianness формата : Big
Идентификатор кодека : 2000
Продолжительность : 1 ч. 50 м.
Вид битрейта : Постоянный
Битрейт : 192 Кбит/сек
Каналы : 2 канала
Расположение каналов : Front: L R
Частота : 48,0 КГц
Битовая глубина : 16 бит
Метод сжатия : С потерями
Размер потока : 151 Мбайт (11%)
Выравнивание : Разделение по промежуткам
Продолжительность промежутка : 42 мс. (1,00 видеокадр)
Время предзагрузки промежутка : 500 мс.


План игры скачать торрент


piratbit.org



Скачать План игры через торрент http://pic.kartinco.top/images/1/nm569e2128.png Скачать фильм План игры через торрент бесплантно в хорошем качестве Описание: Профессиональный игрок в американский футбол внезапно узнает о существовании своей дочери. Появившаяся откуда не возьмись дочурка ... 9.9 10 7
Info! Золотая раздача, скачанное не засчитывается.
Торрент: Зарегистрирован [2012-12-02 14:05] · скачан: 346 раз
Статус: √ проверено
Размер: 1.41 GB
Как cкачать? Как скачать План игры через торрент | qTorrent

% Раздел Тема Автор DL S | L
Фильмы (Blu-ray, BD-Remux, HDDVD) [ 19.22 GB ] План игры / The Game Plan [2007 BDRemux 1080р] Dub Russian Mafia Скачать
1 | 0

28-11-2019 20:33  

Отключить всю рекламу на сайте

    Дорогой пользователь! Огромная просьба, поблагодарите релизера, оцените раздачу и оставьте свои комментарий, если Вы скачали План игры через торрент бесплатно! Внесите свою лепту в развитие PiratBit!
    Комментировать посты могут только пользователи прошедшие не сложную регистрацию
    Показать сообщения:    

    План игры через торрент
    Скачать бесплатно План игры
    План игры скачать торрент
    План игры смотреть онлайн
    Cкачать фильм План игры бесплатно
    План игры скачать торрент в хорошем качестве
    План игры смотреть онлайн бесплатно в хорошем качестве


    Вы не можете начинать темы
    Вы не можете отвечать на сообщения
    Вы не можете редактировать свои сообщения
    Вы не можете удалять свои сообщения
    Вы не можете голосовать в опросах
    Вы не можете прикреплять файлы к сообщениям
    Вы можете скачивать файлы