2 сезон

iTunes

MVO

1

2 сезон

iTunes

iTunes

1 сезон

RePack

30

Новинка

ВАЖНО

ИГРА 18+

pack

RePack

MK11
pack

Легкие деньги

RePack

jed

RePack

fifa19

RePack

RDR2

RePack

NEED FOR SPEED™ PAYBACK

4 сезон

9 сезон

Бесстыжие 9 сезон

Все сериалы

все сериалы на PB.wtf

RePack

FAR CRY 5

Anonymous, доброй ночи, мы не успеваем собрать деньги на оплату серверов за декабрь и январь, помогите нам пожалуйста в это трудное время. В качестве благодарности мы отключим Вам всю рекламу на сайте (укажите свой ник в строку Ваше имя)!

×
  
Magnet ссылка

Соловей-Разбойник (Егор Баранов) [2012 г., боевик, комедия, криминал, HDRip, Оригинал] [ лицензия ] piratbit.org

Соловей-Разбойник через торрент piratbit.org

Размер: 698 MB | Добавлен: 8 лет 1 мес. назад | Торрент скачан:1195 раз
Скачать  

07-12-2012 16:50 Соловей-Разбойник Скачать торрент  


Соловей-Разбойник

Год выпуска: 2012
Страна: Россия
Жанр: боевик, комедия, криминал
Продолжительность: 01:31:39
Перевод: Оригинал [лицензия]

Режиссер: Егор Баранов
Продюссер: Любовь Калинская, Виктор Алисов, Геннадий Меркулов
Сценарий: Иван Охлобыстин

Мировой рейтинг IMDB 6.50 (35)


В ролях: Иван Охлобыстин, Евгений Стычкин, Оксана Фандера, Игорь Жижикин, Сергей Бадюк, Александр Стриженов, Павел Прилучный, Мария Голубкина, Александр Сухинин, Михаил Горевой

Описание: История о дерзком романтике Соловьёве Севастьяне Григорьевиче, cтупившем по зову крови на лихую стезю русского разбоя. И пока спецслужбы во главе с секретным агентом Н7 пытаются ликвидировать банду Соловья-Разбойника, он, со свойственным ему драйвом и озорством, восстанавливает в родном краю справедливость. Но рано или поздно любой «сказке» приходит конец....

Качество: HDRip
Формат: AVI
Видео кодек: XviD
Аудио кодек:MP3
Видео: XviD, 927 kb/s, 640x272,24,000 кадра/сек
Аудио#1: MP3 , 128 kb/s (2 ch) 48,0 КГц
Общее
Полное имя : D:ТорентыSolovej.Razbojnik.2012.O.HDRip.700MB.avi
Формат : AVI
Формат/Информация : Audio Video Interleave
Размер файла : 698 Мбайт
Продолжительность : 1 ч. 31 м.
Общий поток : 1065 Кбит/сек
Программа кодирования : VirtualDubMod 1.5.10.2 (build 2540/release)
Библиотека кодирования : VirtualDubMod build 2540/release

Видео
Идентификатор : 0
Формат : MPEG-4 Visual
Профиль формата : Advanced Simple@L5
Параметр BVOP формата : 2
Параметр QPel формата : Нет
Параметр GMC формата : Без точки перехода
Параметр матрицы формата : Выборочная
Идентификатор кодека : XVID
Идентификатор кодека/Подсказка : XviD
Продолжительность : 1 ч. 31 м.
Битрейт : 927 Кбит/сек
Ширина : 640 пикселей
Высота : 272 пикселя
Соотношение сторон : 2,35:1
Частота кадров : 24,000 кадра/сек
Цветовое пространство : YUV
Субдискретизация насыщенности : 4:2:0
Битовая глубина : 8 бит
Тип развёртки : Прогрессивная
Метод сжатия : С потерями
Бит/(Пиксели*Кадры) : 0.222
Размер потока : 608 Мбайт (87%)
Библиотека кодирования : XviD 64

Аудио
Идентификатор : 1
Формат : MPEG Audio
Версия формата : Version 1
Профиль формата : Layer 3
Идентификатор кодека : 55
Идентификатор кодека/Подсказка : MP3
Продолжительность : 1 ч. 31 м.
Вид битрейта : Постоянный
Битрейт : 128 Кбит/сек
Каналы : 2 канала
Частота : 48,0 КГц
Метод сжатия : С потерями
Размер потока : 83,9 Мбайт (12%)
Выравнивание : Соединение по промежуткам
Продолжительность промежутка : 42 мс. (1,00 видеокадр)
Время предзагрузки промежутка : 504 мс.
Библиотека кодирования : L3.99r
Настройки программы : -m s -V 4 -q 2 -lowpass 17 -b 128




Соловей-Разбойник скачать торрент


piratbit.org



Скачать Соловей-Разбойник через торрент http://i49.fastpic.ru/big/2012/1207/a3/4a9db426076cd250ecdf7cb4ce91b6a3.png Скачать фильм Соловей-Разбойник через торрент бесплантно в хорошем качестве Описание: История о дерзком романтике Соловьёве Севастьяне Григорьевиче, cтупившем по зову крови на лихую стезю русского разбоя. И пока ... 8.3 10 3
Info! Золотая раздача, скачанное не засчитывается.
Торрент: Зарегистрирован [2012-12-07 16:50] · скачан: 1 195 раз
Статус: √ проверено
Размер: 698 MB
Как cкачать? Как скачать Соловей-Разбойник через торрент | UTorrent

% Раздел Тема Автор DL S | L
Наши Мультфильмы (HD, WEB-DL 720p, 1080p) [ 6.75 GB ] Алеша Попович и Тугарин Змей / Добрыня Никитич и Змей Горыныч / Илья Муромец и Соловей Разбойник / Три богатыря и Шамаханская царица / Три богатыря на дальних берегах [2004-2012 мультфильм BDRip 720p] от R.G. PiratFilms Demonessa Скачать
1 | 0
Приключения, Квесты, Логические [ 3.07 GB ] Алеша Попович и Тугарин Змей / Добрыня Никитич и Змей Горыныч / Илья Муромец и Соловей Разбойник [Repack RU] Ubik1 Скачать
1 | 0
Наши Мультфильмы (HD, WEB-DL 720p, 1080p) [ 6.51 GB ] Алёша Попович и Тугарин Змей / Добрыня Никитич и Змей Горыныч / Илья Муромец и Соловей Разбойник [2007 BDRip] ACFIORENTINA Скачать
1 | 0
Наши фильмы 2012 [ 1.23 GB ] Соловей-Разбойник [2012 BDRip-AVC Оригинал] jb_alex Скачать
1 | 0
Наши фильмы 2012 [ 1.45 GB ] Соловей-Разбойник [2012 BDRip-AVC Оригинал] [ лицензия ] AGKRus36 Скачать
1 | 0
Наши фильмы (HD, WEB-DL 720p, 1080p) [ 4.49 GB ] Соловей-Разбойник [2012 BDRip 720p] [ лицензия ] Ворон Скачать
1 | 0
Наши фильмы (DVD фильмы) [ 7.49 GB ] Соловей-Разбойник [2012 DVD9] R5 voovaz Скачать
1 | 0

28-11-2019 20:33  

Отключить всю рекламу на сайте

07-12-2012 18:16 Соловей-Разбойник Скачать торрент  

НА 5+ наконецто дождалсяpiratbit.org



08-12-2012 07:40 Соловей-Разбойник Скачать торрент  

полюбил себя охлабыстин-зазвездился даже,герой блин
на один раз пойдет фильмpiratbit.org



15-12-2012 13:59 Соловей-Разбойник Скачать торрент  

такой сказки я ещё не видел piratbit.org



    Дорогой пользователь! Огромная просьба, поблагодарите релизера, оцените раздачу и оставьте свои комментарий, если Вы скачали Соловей-Разбойник через торрент бесплатно! Внесите свою лепту в развитие PiratBit!
    Комментировать посты могут только пользователи прошедшие не сложную регистрацию
    Показать сообщения:    

    Соловей-Разбойник через торрент
    Скачать бесплатно Соловей-Разбойник
    Соловей-Разбойник скачать торрент
    Соловей-Разбойник смотреть онлайн
    Cкачать фильм Соловей-Разбойник бесплатно
    Соловей-Разбойник скачать торрент в хорошем качестве
    Соловей-Разбойник смотреть онлайн бесплатно в хорошем качестве


    Вы не можете начинать темы
    Вы не можете отвечать на сообщения
    Вы не можете редактировать свои сообщения
    Вы не можете удалять свои сообщения
    Вы не можете голосовать в опросах
    Вы не можете прикреплять файлы к сообщениям
    Вы можете скачивать файлы