1 сезон

1 сезон

iTunes

1

КиноПоиск HD

Кинопоиск HD

iTunes

13

1 сезон

RePack

30

Deluxe

ВАЖНО

ИГРА 18+

pack

RePack

MK11
pack

Легкие деньги

RePack

jed

RePack

fifa19

RePack

RDR2

RePack

NEED FOR SPEED™ PAYBACK

4 сезон

9 сезон

Бесстыжие 9 сезон

Все сериалы

все сериалы на PB.wtf

RePack

FAR CRY 5
  
Magnet ссылка

Казанова / Casanova (Лассе Халльстрём) [2005 г., драма, мелодрама, комедия, приключения, история, HDRip, Дубляж] piratbit.org

Казанова через торрент piratbit.org

Размер: 745 MB | Добавлен: 8 лет 4 мес. назад | Торрент скачан:47 раз
Скачать  

08-12-2012 17:40 Казанова Скачать торрент  

Казанова / CasanovaГод выпуска: 2005
Страна: США
Жанр: драма, мелодрама, комедия, приключения, история
Продолжительность: 01:51:32
Перевод: Профессиональный (полное дублирование)

Режиссер: Лассе Халльстрём
Продюссер: Су Армстронг, Бетси Бирс, Гвидо Черасуоло
Сценарий: Джеффри Хэтчер, Кимберли Сими, Майкл Кристофер

Премьера в мире: 3 сентября 2005

лицам до 17 лет обязательно присутствие взрослого

http://www.kinopoisk.ru/film/78206/

В ролях: Хит Леджер, Сиенна Миллер, Джереми Айронс, Оливер Плэтт, Лена Улин, Омид Джалили

Описание: Он был известным путешественником, талантливым литератором, ловким шпионом, искусным врачом и даже… изобретателем лотереи! Но в памяти потомков венецианец Джакомо Казанова остался прежде всего как величайший донжуан 18 века. О его галантных приключениях ходили легенды. Тысячи дам по всей Европе - от служанок до аристократок - дарили свою любовь обаятельному авантюристу, но так и не смогли покорить его самого. Пока однажды Джакомо не встретил умную и прелестную Франческу Бруни - единственную женщину, над которой его чары не имели силы. Заинтригованный, Казанова решил во что бы то ни стало завоевать сердце красавицы, не сразу поняв, что его собственное сердце уже завоевано навеки..

Доп. информация: Впервые легендарный Казанова встретил достойную соперницу в амурных делах — венецианскую красавицу Франческу. Ей удается неслыханное: устоять перед неотразимыми чарами знаменитого соблазнителя… Ему приходится применить весь арсенал приемов, рисковать своей жизнью и репутацией ради ее благосклонности…

Качество: HDRip
Формат: AVI
Видео кодек: XviD
Аудио кодек: MP3
Видео: MPEG-4 Visual, XviD, 797 Кбит/сек, 656х368 пикселей, 23,976 кадра/сек
Аудио#1: MPEG Audio, MP3 , 128 Кбит/сек, 2 канала, 48,0 КГц





Формат : AVI
Формат/Информация : Audio Video Interleave
Размер файла : 745 Мбайт
Продолжительность : 1 ч. 51 м.
Общий поток : 934 Кбит/сек
Программа кодирования : VirtualDubMod 1.5.10.2 (build 2540/release)
Библиотека кодирования : VirtualDubMod build 2540/release

Видео
Идентификатор : 0
Формат : MPEG-4 Visual
Профиль формата : Advanced Simple@L5
Параметр BVOP формата : 1
Параметр QPel формата : Нет
Параметр GMC формата : Без точки перехода
Параметр матрицы формата : Default (MPEG)
Идентификатор кодека : XVID
Идентификатор кодека/Подсказка : XviD
Продолжительность : 1 ч. 51 м.
Битрейт : 797 Кбит/сек
Ширина : 656 пикселей
Высота : 368 пикселей
Соотношение сторон : 16:9
Частота кадров : 23,976 кадра/сек
Цветовое пространство : YUV
Субдискретизация насыщенности : 4:2:0
Битовая глубина : 8 бит
Тип развёртки : Прогрессивная
Метод сжатия : С потерями
Бит/(Пиксели*Кадры) : 0.138
Размер потока : 636 Мбайт (85%)
Библиотека кодирования : XviD 1.2.0.dev47 (UTC 2006-11-01)

Аудио
Идентификатор : 1
Формат : MPEG Audio
Версия формата : Version 1
Профиль формата : Layer 3
Идентификатор кодека : 55
Идентификатор кодека/Подсказка : MP3
Продолжительность : 1 ч. 51 м.
Вид битрейта : Постоянный
Битрейт : 128 Кбит/сек
Каналы : 2 канала
Частота : 48,0 КГц
Метод сжатия : С потерями
Размер потока : 102 Мбайт (14%)
Выравнивание : Соединение по промежуткам
Продолжительность промежутка : 42 мс. (1,00 видеокадр)
Время предзагрузки промежутка : 504 мс.
Библиотека кодирования : LAME3.97
Настройки программы : -m s -V 4 -q 2 -lowpass 17 -b 128

piratbit.org



Скачать Казанова через торрент https://pic1.kartinco.top/images/111/ma2zzh7oyw.jpg Скачать фильм Казанова через торрент бесплантно в хорошем качестве Описание: Он был известным путешественником, талантливым литератором, ловким шпионом, искусным врачом и даже… изобретателем лотереи! Но в ... 9.7 10 7
Info! Золотая раздача, скачанное не засчитывается.
Торрент: Зарегистрирован [2012-12-08 17:40] · скачан: 47 раз
Статус: √ проверено
Размер: 745 MB
Как cкачать? Как скачать Казанова через торрент | UTorrent

% Раздел Тема Автор DL S | L
Фильмы [HD 720p, 1080p] (Хороший звук DUB, MVO) [ 15.88 GB ] Казанова 70 / Casanova 70 [1965 BDRip 1080p by msltel] DVO msltel Скачать
1 | 0
Фильмы [HD 720p, 1080p] (Хороший звук DUB, MVO) [ 5.22 GB ] Казанова 70 / Casanova 70 [1965 BDRip 720p by msltel] DVO msltel Скачать
1 | 0
Классика зарубежного кино [ 1.45 GB ] Казанова 70 / Casanova '70 [1965 BDRip] DVO koenig Скачать
1 | 0
Классические порно фильмы [ 960 MB ] Казанова 2 - Дальнейшие Казановы / Casanova 2 - Further Adventures of Casanova [1982 Feature DVDRip 384p] sheker187 Скачать
1 | 0
Порно фильмы с сюжетом [ 728 MB ] Вор-любовник Джакомо Казанова / Ladro d'amore - Giacomo Casanova/Thief of Love [1998 Feature DVDRip 240p] sheker187 Скачать
1 | 0
Порно фильмы с русским переводом [ 1.28 GB ] Казанова / Casanova [1993 All Sex Feature Couples Anal Blow Jobs Cumshot Oral Role Playing Toys DVDRip RU SP Company] sheker187 Скачать
1 | 0
Порно фильмы с русским переводом [ 1.5 GB ] Казанова / Private Black Label 46 - Casanova [2006 Feature/Story. DVDRip] [С Русским Переводом] Pir@tya2010 Скачать
1 | 0


Последний раз редактировалось: lexxus350 (2012-12-08 18:47), всего редактировалось 3 раз(а)

28-11-2019 20:33  

Отключить всю рекламу на сайте

08-12-2012 17:53 Казанова Скачать торрент  

Указываем перевод.

Делаем картинку меньше или удаляем.
piratbit.org



    Дорогой пользователь! Огромная просьба, поблагодарите релизера, оцените раздачу и оставьте свои комментарий, если Вы скачали Казанова через торрент бесплатно! Внесите свою лепту в развитие PiratBit!
    Комментировать посты могут только пользователи прошедшие не сложную регистрацию
    Показать сообщения:    

    Казанова через торрент
    Скачать бесплатно Казанова
    Казанова скачать торрент
    Казанова смотреть онлайн
    Cкачать фильм Казанова бесплатно
    Казанова скачать торрент в хорошем качестве
    Казанова смотреть онлайн бесплатно в хорошем качестве


    Вы не можете начинать темы
    Вы не можете отвечать на сообщения
    Вы не можете редактировать свои сообщения
    Вы не можете удалять свои сообщения
    Вы не можете голосовать в опросах
    Вы не можете прикреплять файлы к сообщениям
    Вы можете скачивать файлы