Ссылка на приватное зеркало нашего сайта всего за 1$. Внимание количество ограничено!!!

2 сезон

iTunes

iTunes

1

iTunes

iTunes

iTunes

WEBRip

iTunes

30
pack

Вам бонус

ВАЖНО

!!Акция!!

Alien_RageХит недели

RePack

Horizon Zero Dawn

ИГРА 18+

pack

RePack

jed

!!Акция!!

Alien_Rage

RePack

fifa19

RePack

Assassins Creed: Odyssey

RePack

NEED FOR SPEED™ PAYBACK

4 сезон

9 сезон

Бесстыжие 9 сезон

Все сериалы

все сериалы на PB.wtf

RePack

FAR CRY 5
  

Идеальное создание / Perfect Creature (Гленн Стэндринг) [2006 г., Фэнтези, ужасы, драма, DVDRip, MVO, лицензия] piratbit.org

Идеальное создание через торрент piratbit.org

Размер: 1.36 GB | Добавлен: 7 лет 9 мес. назад | Торрент скачан:261 раз
Скачать  

10-12-2012 08:50 Идеальное создание Скачать торрент  

Идеальное создание / Perfect Creature

Год выпуска: 2006
Страна: Великобритания, Новая Зеландия
Жанр: Фэнтези, ужасы, драма
Продолжительность: 01:24:15
Перевод: Профессиональный многоголосый, Лицензия

Режиссер: Гленн Стэндринг
Продюссер: Майкл Кауэн, Рассел Фишер, Джейсон Питти
Сценарий: Гленн Стэндринг

Бюджет: $20 000 000
Премьера в мире: 24 апреля 2006

MPAA: R - лицам до 17 лет обязательно присутствие взрослого
IMDb: 5.30 (3 837)
Кинопоиск: 4.985 642

В ролях: Дугрей Скотт, Сеффрон Берроуз, Лео Грегори, Скотт Уиллс, Стюарт Уилсон, Крэйг Холл, Робби Магасива, Лоурен Джексон, Питер МакКоли, Глен Дрэйк

Описание: Триста лет люди и вампиры жили рядом. И вот однажды смертельный вирус из тайной правительственной лаборатории вырвался на свободу и заразил безумием одного вампира. Но это грозит привести к жестокой войне, кровавой бойне между людьми и вампирами, если полицейская Лили не остановит безумца…

Доп. информация: ИДЕАЛЬНОЕ СОЗДАНИЕ от создателей: "Властелин колец" — это оригинальная интерпретация легенды о вампирах, живущих в параллельном мире .

В этом захватывающем и ярком триллере о противостоянии рас, серийных убийствах и о способности людей несмотря на трудности не терять надежду, органично представлены такие жанры, как фэнтези и ужасы.

Это не просто фильм ужасов или триллер. Картина содержит в себе много разных элементов: здесь есть экшен, много спецэффектов, но, помимо этого, зрители получают некоторую познавательную информацию, и конечно же, это потрясающая история любви.

Качество: DVDRip
Формат: AVI
Видео кодек: XviD
Аудио кодек: AC3
Видео: 704x288 (2.44:1), 25 fps, XviD MPEG-4 ~1922 kbps avg, 0.38 bit/pixel
Аудио#1: 48 kHz, AC3 Dolby Digital, 3/2 (L,C,R,l,r) + LFE ch, ~384 kbps
Релиз от: сторонний ресурс










Общее
Полное имя : D:TorrentIdealnoe.sozdanie.2006.P.DVDRip.сторонний ресурс.avi
Формат : AVI
Формат/Информация : Audio Video Interleave
Размер файла : 1,36 Гбайт
Продолжительность : 1 ч. 24 м.
Общий поток : 2316 Кбит/сек
Программа кодирования : VirtualDubMod 1.5.10.2 (build 2542/release)
Библиотека кодирования : VirtualDubMod build 2542/release

Видео
Идентификатор : 0
Формат : MPEG-4 Visual
Профиль формата : Advanced Simple@L5
Параметр BVOP формата : 2
Параметр QPel формата : Нет
Параметр GMC формата : Без точки перехода
Параметр матрицы формата : Default (MPEG)
Режим смешивания : Сжатый битовый поток
Идентификатор кодека : XVID
Идентификатор кодека/Подсказка : XviD
Продолжительность : 1 ч. 24 м.
Битрейт : 1922 Кбит/сек
Ширина : 704 пикс.
Высота : 288 пикс.
Соотношение сторон : 2,40:1
Частота кадров : 25,000 кадр/сек
Частота кадров в оригинале : 23,976 кадр/сек
Цветовое пространство : YUV
Подвыборка цветности : 4:2:0
Битовая глубина : 8 бит
Тип развёртки : Прогрессивная
Метод сжатия : С потерями
Бит/(Пиксели*Кадры) : 0.379
Размер потока : 1,13 Гбайт (83%)
Библиотека кодирования : XviD 1.2.0.dev47 (UTC 2006-11-01)

Аудио
Идентификатор : 1
Формат : AC-3
Формат/Информация : Audio Coding 3
Расширение режима : CM (complete main)
Идентификатор кодека : 2000
Продолжительность : 1 ч. 24 м.
Вид битрейта : Постоянный
Битрейт : 384 Кбит/сек
Каналы : 6 каналов
Расположение каналов : Front: L C R, Side: L R, LFE
Частота : 48,0 КГц
Битовая глубина : 16 бит
Метод сжатия : С потерями
Задержка видео : 500 мс.
Размер потока : 231 Мбайт (17%)
Выравнивание : Разделение по промежуткам
Продолжительность промежутка : 40 мс. (1,00 видеокадр)
Время предзагрузки промежутка : 500 ms

piratbit.org



Скачать Идеальное создание через торрент http://pic.kartinco.top/images/1/am8fpvbzp3.jpg Скачать фильм Идеальное создание через торрент бесплантно в хорошем качестве Описание: Триста лет люди и вампиры жили рядом. И вот однажды смертельный вирус из тайной правительственной лаборатории вырвался на свободу ... 10 10 1
Info! Золотая раздача, скачанное не засчитывается.
Торрент: Зарегистрирован [2012-12-10 08:50] · скачан: 261 раз
Статус: √ проверено
Размер: 1.36 GB
Как cкачать? Как скачать Идеальное создание через торрент | qTorrent

28-11-2019 20:33  

Отключить всю рекламу на сайте

    Дорогой пользователь! Огромная просьба, поблагодарите релизера, оцените раздачу и оставьте свои комментарий, если Вы скачали Идеальное создание через торрент бесплатно! Внесите свою лепту в развитие PiratBit!
    Комментировать посты могут только пользователи прошедшие не сложную регистрацию
    Показать сообщения:    

    Идеальное создание через торрент
    Скачать бесплатно Идеальное создание
    Идеальное создание скачать торрент
    Идеальное создание смотреть онлайн
    Cкачать фильм Идеальное создание бесплатно
    Идеальное создание скачать торрент в хорошем качестве
    Идеальное создание смотреть онлайн бесплатно в хорошем качестве


    Вы не можете начинать темы
    Вы не можете отвечать на сообщения
    Вы не можете редактировать свои сообщения
    Вы не можете удалять свои сообщения
    Вы не можете голосовать в опросах
    Вы не можете прикреплять файлы к сообщениям
    Вы можете скачивать файлы