Ссылка на приватное зеркало нашего сайта всего за 1$. Внимание количество ограничено!!!

2 сезон

iTunes

iTunes

1

iTunes

iTunes

iTunes

WEBRip

iTunes

30
pack

Вам бонус

ВАЖНО

!!Акция!!

Alien_RageХит недели

RePack

Horizon Zero Dawn

ИГРА 18+

pack

RePack

jed

!!Акция!!

Alien_Rage

RePack

fifa19

RePack

Assassins Creed: Odyssey

RePack

NEED FOR SPEED™ PAYBACK

4 сезон

9 сезон

Бесстыжие 9 сезон

Все сериалы

все сериалы на PB.wtf

RePack

FAR CRY 5
  

Омен / The Omen (Джон Мур) [2006 г., ужасы, триллер, HDRip, Дубляж ] piratbit.org

Омен через торрент piratbit.org

Размер: 1.45 GB | Добавлен: 6 лет 2 мес. назад | Торрент скачан:352 раза
Скачать  

16-12-2012 11:22 Омен Скачать торрент  

Омен / The Omen
«Пророчество ясно. Знаки безошибочны. На 6 день 6-го месяца года 2006-го наступил его день.»
  • Год выпуска:2006
  • Страна:США, Twentieth Century-Fox Film Corporation
  • Жанр: Мистика, Триллер
  • Продолжительность: 01:49:50
  • Перевод: Дублированный
  • Cубтитры: нет
  • Режиссер:Джон Мур
  • В ролях: Лив Шрайбер, Джулия Стайлз, Симус Дэви-Фицпатрик, Эми Хак, Дэвид Тьюлис, Педжа Бьелак, Карло Сабатини, Бохумил Сварч, Джованни Ломбардо Радице, Томас Вулер, Рафаэль Саллас, Маршалл Капп, Винс Валитути, Клара Лоу.

  • Описание:
    Римейк классического фильма ужасов 1976 года. Американский посол Роберт Торн и его любимая жена ожидают ребёнка. Но когда она рожает мёртвого младенца, таинственный итальянский священник убеждает дипломата тайно усыновить другого младенца из больницы. Торн последовал совету священника, не сказав жене об их потере. После пяти коротких счастливых лет вместе, начинают происходить странные вещи...

  • Автор рипа: Vetаl
  • Качество видео:HDRip (BDRip [1080p] )
  • Формат видео: AVI
  • Видео кодек: XviD
  • Аудио кодек: AC3
  • Видео: MPEG4, XviD, 720x384 (1.875), 23.976 fps, 1 503 Kbps (0.227 bit/pixel)
  • Аудио: AC-3, 48.0 KHz, 6 ch, 384 Kbps, CBR


  • Общее
    Полное имя : D:ТорентыОмен_2006_by Vetal.avi
    Формат : AVI
    Формат/Информация : Audio Video Interleave
    Размер файла : 1,45 Гбайт
    Продолжительность : 1 ч. 49 м.
    Общий поток : 1896 Кбит/сек

    Видео
    Идентификатор : 0
    Формат : MPEG-4 Visual
    Профиль формата : Advanced Simple@L5
    Параметр BVOP формата : 2
    Параметр QPel формата : Нет
    Параметр GMC формата : Без точки перехода
    Параметр матрицы формата : Default (H.263)
    Идентификатор кодека : XVID
    Идентификатор кодека/Подсказка : XviD
    Продолжительность : 1 ч. 49 м.
    Битрейт : 1503 Кбит/сек
    Ширина : 720 пикселей
    Высота : 384 пикселя
    Соотношение сторон : 1,85:1
    Частота кадров : 23,976 кадра/сек
    Цветовое пространство : YUV
    Субдискретизация насыщенности : 4:2:0
    Битовая глубина : 8 бит
    Тип развёртки : Прогрессивная
    Метод сжатия : С потерями
    Бит/(Пиксели*Кадры) : 0.227
    Размер потока : 1,15 Гбайт (79%)
    Библиотека кодирования : XviD 64

    Аудио
    Идентификатор : 1
    Формат : AC-3
    Формат/Информация : Audio Coding 3
    Расширение режима : CM (complete main)
    Параметр Endianness формата : Big
    Идентификатор кодека : 2000
    Продолжительность : 1 ч. 49 м.
    Продолжительность оригинала : 1 ч. 49 м.
    Вид битрейта : Постоянный
    Битрейт : 384 Кбит/сек
    Каналы : 6 каналов
    Расположение каналов : Front: L C R, Side: L R, LFE
    Частота : 48,0 КГц
    Битовая глубина : 16 бит
    Метод сжатия : С потерями
    Размер потока : 302 Мбайт (20%)
    Выравнивание : Соединение по промежуткам
    Продолжительность промежутка : 42 мс. (1,00 видеокадр)
  • © Оформление by Vetal
    piratbit.org



    Скачать Омен через торрент http://pic.kartinco.top/new/img/2014-07/20/kbymemcilhvczy6rxb8jr171s.png Скачать фильм Омен через торрент бесплантно в хорошем качестве Описание:Римейк классического фильма ужасов 1976 года. Американский посол Роберт Торн и его любимая жена ожидают ребёнка. Но когда она ... 10 10 8
    Info! Золотая раздача, скачанное не засчитывается.
    Торрент: Зарегистрирован [2014-07-20 01:09] · скачан: 352 раз
    Статус: √ проверено
    Размер: 1.45 GB
    Как cкачать? Как скачать Омен через торрент | qTorrent

    % Раздел Тема Автор DL S | L
    Документальные фильмы и телепередачи [ 1.97 GB ] Феномен «Бумажного дома» / La casa de papel: El fenómeno / Money Heist: The Phenomenon [2020 документальный WEBRip 720p] [MVO] killermax2013 Скачать
    1 | 0
    Фильмы (Blu-ray, BD-Remux, HDDVD) [ 31.86 GB ] Омен / The Omen [1976 Blu-Ray Remux 1080p] 4xMVO DVO 9xAVO Леонид Ильич Скачать
    1 | 0
    Арт-хаус и авторское кино [ 7.79 GB ] Момент безрассудства / The Reckless Moment [1949 фильм-нуар BDRip 1080p by msltel] AVO msltel Скачать
    1 | 0
    Арт-хаус и авторское кино [ 2.8 GB ] Момент безрассудства / The Reckless Moment [1949 фильм-нуар BDRip 720p by msltel] AVO msltel Скачать
    1 | 0
    Арт-хаус и авторское кино [ 1.55 GB ] Момент безрассудства / The Reckless Moment [1949 фильм-нуар BDRip by msltel] AVO msltel Скачать
    1 | 0
    Фильмы [HD 720p, 1080p] (Хороший звук DUB, MVO) [ 16.13 GB ] Омен / The Omen [1976 BDRip 1080p by msltel] 2 x MVO 7 x AVO msltel Скачать
    1 | 0
    Фильмы [HD 720p, 1080p] (Хороший звук DUB, MVO) [ 6.56 GB ] Омен / The Omen [1976 BDRip 720p by msltel] 2 x MVO 7 x AVO msltel Скачать
    1 | 0

    28-11-2019 20:33  

    Отключить всю рекламу на сайте

      Дорогой пользователь! Огромная просьба, поблагодарите релизера, оцените раздачу и оставьте свои комментарий, если Вы скачали Омен через торрент бесплатно! Внесите свою лепту в развитие PiratBit!
      Комментировать посты могут только пользователи прошедшие не сложную регистрацию
      Показать сообщения:    

      Омен через торрент
      Скачать бесплатно Омен
      Омен скачать торрент
      Омен смотреть онлайн
      Cкачать фильм Омен бесплатно
      Омен скачать торрент в хорошем качестве
      Омен смотреть онлайн бесплатно в хорошем качестве


      Вы не можете начинать темы
      Вы не можете отвечать на сообщения
      Вы не можете редактировать свои сообщения
      Вы не можете удалять свои сообщения
      Вы не можете голосовать в опросах
      Вы не можете прикреплять файлы к сообщениям
      Вы можете скачивать файлы