1 сезон

iTunes

iTunes

1

Line

MVO

iTunes

13

1 сезон

RePack

30

Deluxe

pack

Лицензия

ВАЖНО

ИГРА 18+

pack

RePack

MK11

RePack

jed

RePack

fifa19

RePack

RDR2

RePack

NEED FOR SPEED™ PAYBACK

4 сезон

9 сезон

Бесстыжие 9 сезон

Все сериалы

все сериалы на PB.wtf

RePack

FAR CRY 5

Anonymous, доброй ночи, мы катастрофически не успеваем собрать деньги на оплату серверов, помогите нам пожалуйста 5,10,15р., для нас важна любая помощь . В качестве благодарности мы отключим Вам всю рекламу на сайте (укажите свой ник в строку Ваше имя)!

×
  
Magnet ссылка

Артефакт / Wishcraft ( Дэнни Грейвз, Ричард Уэнк) [2001, ужасы,DVDRip, Профессиональный (многоголосый закадровый)] piratbit.org

Артефакт через торрент piratbit.org

Размер: 1.46 GB | Добавлен: 8 лет 7 мес. назад | Торрент скачан:78 раз
Скачать  

16-12-2012 15:45 Артефакт Скачать торрент  

Артефакт / Wishcraft

Год выпуска: 2001
Страна: США
Жанр: ужасы
Продолжительность: 01:42:00
Перевод: Профессиональный (многоголосый закадровый)
Режиссер: Дэнни Грейвз, Ричард Уэнк
Продюссер: Ларри Кац, Джинн Ван Котт, Норм Уэйт
Сценарий: Ларри Кац

Мировой рейтинг IMDB 5.10 (1 218)


В ролях: Майкл Уэстон, Александра Холден, Хантли Риттер, Остин Пендлтон, А.Дж. Баккли, Мит Лоаф, Грегори Кук, Сэм МакМюррей, Эллис Бисли, Скотт Кодилл

Описание: Совершенно неожиданно для себя старшеклассник Бретт получает по почте странный артефакт, дающий ему возможность исполнить три любых желания. Бретт немедленно «влюбляет в себя» Саманту, самую красивую девушку в школе.И практически одновременно в школе начинают происходить страшные и загадочные события: один за другим самые популярные ученики и ученицы становятся жертвами невидимого ночного убийцы.Бретт задается вопросом: есть ли связь между этими жестокими убийствами и его новообретенной силой? Кто станет новой жертвой таинственного убийцы? И может быть, чтобы защитить любимую девушку, он должен «подставиться» сам?

Качество: DVDRip
Формат: AVI
Видео кодек: XviD
Аудио кодек: AC3
Видео: 720x400 (1.80:1), 25 fps, XviD build 50 ~1655 kbps avg, 0.23 bit/pixel
Аудио#1: 48 kHz, AC3 Dolby Digital, 3/2 (L,C,R,l,r) + LFE ch, ~384 kbps
General
Complete name : C:wish.avi
Format : AVI
Format/Info : Audio Video Interleave
File size : 1.46 GiB
Duration : 1h 42mn
Overall bit rate : 2 049 Kbps
Writing application : VirtualDubMod 1.5.10.3 | www.virtualdub-fr.org || (build 2550/release)
Writing library : VirtualDubMod build 2550/release
Video
ID : 0
Format : MPEG-4 Visual
Format profile : Advanced Simple@L5
Format settings, BVOP : 2
Format settings, QPel : No
Format settings, GMC : No warppoints
Format settings, Matrix : Custom
Codec ID : XVID
Codec ID/Hint : XviD
Duration : 1h 42mn
Bit rate : 1 655 Kbps
Width : 720 pixels
Height : 400 pixels
Display aspect ratio : 16:9
Frame rate : 25.000 fps
Color space : YUV
Chroma subsampling : 4:2:0
Bit depth : 8 bits
Scan type : Progressive
Compression mode : Lossy
Bits/(Pixel*Frame) : 0.230
Stream size : 1.18 GiB (81%)
Writing library : XviD 1.2.1 (UTC 2008-12-04)
Audio
ID : 1
Format : AC-3
Format/Info : Audio Coding 3
Mode extension : CM (complete main)
Codec ID : 2000
Duration : 1h 42mn
Bit rate mode : Constant
Bit rate : 384 Kbps
Channel(s) : 6 channels
Channel positions : Front: L C R, Side: L R, LFE
Sampling rate : 48.0 KHz
Bit depth : 16 bits
Compression mode : Lossy
Stream size : 280 MiB (19%)
Alignment : Split accross interleaves
Interleave, duration : 40 ms (1.00 video frame)
Interleave, preload duration : 500 ms


Артефакт скачать торрент


piratbit.org



Скачать Артефакт через торрент http://i18.fastpic.ru/big/2011/0318/fe/4dec3b4ad93f36ebb86051a5539179fe.jpg Скачать фильм Артефакт через торрент бесплантно в хорошем качестве Описание: Совершенно неожиданно для себя старшеклассник Бретт получает по почте странный артефакт, дающий ему возможность исполнить три ... 5 10 1
Info! Золотая раздача, скачанное не засчитывается.
Торрент: Зарегистрирован [2012-12-16 15:45] · скачан: 78 раз
Статус: √ проверено
Размер: 1.46 GB
Как cкачать? Как скачать Артефакт через торрент | UTorrent

% Раздел Тема Автор DL S | L
# Фильмы 2001-2005 [ 1.09 GB ] Артефакт / Wishcraft [2002 DVDRip-AVC] [DVO] killermax2013 Скачать
1 | 0

28-11-2019 20:33  

Отключить всю рекламу на сайте

    Дорогой пользователь! Огромная просьба, поблагодарите релизера, оцените раздачу и оставьте свои комментарий, если Вы скачали Артефакт через торрент бесплатно! Внесите свою лепту в развитие PiratBit!
    Комментировать посты могут только пользователи прошедшие не сложную регистрацию
    Показать сообщения:    

    Артефакт через торрент
    Скачать бесплатно Артефакт
    Артефакт скачать торрент
    Артефакт смотреть онлайн
    Cкачать фильм Артефакт бесплатно
    Артефакт скачать торрент в хорошем качестве
    Артефакт смотреть онлайн бесплатно в хорошем качестве


    Вы не можете начинать темы
    Вы не можете отвечать на сообщения
    Вы не можете редактировать свои сообщения
    Вы не можете удалять свои сообщения
    Вы не можете голосовать в опросах
    Вы не можете прикреплять файлы к сообщениям
    Вы можете скачивать файлы