Ссылка на приватное зеркало нашего сайта всего за 1$. Внимание количество ограничено!!!

2 сезон

iTunes

iTunes

1

iTunes

iTunes

iTunes

WEBRip

iTunes

30
pack

Вам бонус

ВАЖНО

!!Акция!!

Alien_RageХит недели

RePack

Horizon Zero Dawn

ИГРА 18+

pack

RePack

jed

!!Акция!!

Alien_Rage

RePack

fifa19

RePack

Assassins Creed: Odyssey

RePack

NEED FOR SPEED™ PAYBACK

4 сезон

9 сезон

Бесстыжие 9 сезон

Все сериалы

все сериалы на PB.wtf

RePack

FAR CRY 5
  

Агент 117 / OSS 117: Le Caire nid d'espions (Мишель Хазанавичус) [2006 г., боевик, комедия, криминал, приключения, BDRip, DUB + Оригинал] piratbit.org

Агент 117 через торрент piratbit.org

Размер: 2.06 GB | Добавлен: 7 лет 9 мес. назад | Торрент скачан:140 раз
Скачать  

16-12-2012 22:22 Агент 117 Скачать торрент  

Агент 117 / OSS 117: Le Caire nid d'espions
«Вооружен и очень гламурен!»

Год выпуска: 2006
Страна: Франция
Жанр: боевик, комедия, криминал, приключения
Продолжительность: 01:39:02
Перевод: Дубляж + Оригинал

Режиссер: Мишель Хазанавичус
Продюссер: Эрик Альтмайер, Николас Альтмайер, Гаетан Дэвид
Сценарий: Жан-Франсуа Алин, Жан Брюс, Мишель Хазанавичус

Бюджет: €14 000 000
Премьера в мире: 6 апреля 2006

В ролях: Жан Дюжарден, Беренис Бежо, Оре Атика, Филипп Лефевр, Константин Александров, Саид Амади, Лоран Бато, Клод Броссе, Франсуа Дамьен, Эрик Прат, Ришар Саммель, Марк Боднар

Описание: Египет, 1955-й год. Каир буквально переполнен шпионами всех мастей. Никто никому не доверяет, все плетут интриги: англичане, французы, русские, семья свергнутого короля Фарука, мечтающего вновь взобраться на трон, и «Орлы Хеопса» — религиозная секта, которая рвется к власти…
Чтобы удержать ситуацию под контролем и навести порядок, президент Французской республики Рене Коти посылает туда своего лучшего сотрудника — Юбера Бониссёра де ля Бат, известного как агент 117.

Качество: BDRip
Формат: AVI
Видео кодек: XviD
Аудио кодек: AC3
Видео: 720х304, 23,976 fps, 2058 kbps, 0.392 bit/pixel
Аудио#1: 48 kHz, AC3 5.1, 448.00 kbps / Дубляж
Аудио#2: 48 kHz, AC3 5.1, 448.00 kbps / Оригинал (Французкий)
Субтитры: Русский, Английские - полные / Французкие - форсированные / внешние
&
Общее
Полное имя : E:Фильмы МOSS 117 Le Caire nid d'espions.2006.BDRipOSS 117 Le Caire nid d'espions.2006.BDRip.avi
Формат : AVI
Формат/Информация : Audio Video Interleave
Профиль формата : OpenDML
Размер файла : 2,06 Гбайт
Продолжительность : 1 ч. 39 м.
Общий поток : 2973 Кбит/сек
Программа кодирования : VirtualDubModRus 1.5.10.2 (build 2542/release)
Библиотека кодирования : VirtualDubMod build 2542/release

Видео
Идентификатор : 0
Формат : MPEG-4 Visual
Профиль формата : Advanced Simple@L5
Параметр BVOP формата : 1
Параметр QPel формата : Нет
Параметр GMC формата : Без точки перехода
Параметр матрицы формата : Выборочная
Режим смешивания : Сжатый битовый поток
Идентификатор кодека : XVID
Идентификатор кодека/Подсказка : XviD
Продолжительность : 1 ч. 39 м.
Битрейт : 2058 Кбит/сек
Ширина : 720 пикселей
Высота : 304 пикселя
Соотношение сторон : 2,35:1
Частота кадров : 23,976 кадра/сек
Цветовое пространство : YUV
Субдискретизация насыщенности : 4:2:0
Битовая глубина : 8 бит
Тип развёртки : Прогрессивная
Метод сжатия : С потерями
Бит/(Пиксели*Кадры) : 0.392
Размер потока : 1,42 Гбайт (69%)
Библиотека кодирования : XviD 65

Аудио #1
Идентификатор : 1
Формат : AC-3
Формат/Информация : Audio Coding 3
Расширение режима : CM (complete main)
Параметр Endianness формата : Big
Идентификатор кодека : 2000
Продолжительность : 1 ч. 39 м.
Вид битрейта : Постоянный
Битрейт : 448 Кбит/сек
Каналы : 6 каналов
Расположение каналов : Front: L C R, Side: L R, LFE
Частота : 48,0 КГц
Битовая глубина : 16 бит
Метод сжатия : С потерями
Размер потока : 317 Мбайт (15%)
Выравнивание : Разделение по промежуткам
Продолжительность промежутка : 42 мс. (1,00 видеокадр)
Время предзагрузки промежутка : 500 мс.
Заголовок : Дубляж

Аудио #2
Идентификатор : 2
Формат : AC-3
Формат/Информация : Audio Coding 3
Расширение режима : CM (complete main)
Параметр Endianness формата : Big
Идентификатор кодека : 2000
Продолжительность : 1 ч. 39 м.
Вид битрейта : Постоянный
Битрейт : 448 Кбит/сек
Каналы : 6 каналов
Расположение каналов : Front: L C R, Side: L R, LFE
Частота : 48,0 КГц
Битовая глубина : 16 бит
Метод сжатия : С потерями
Размер потока : 317 Мбайт (15%)
Выравнивание : Разделение по промежуткам
Продолжительность промежутка : 42 мс. (1,00 видеокадр)
Время предзагрузки промежутка : 500 мс.
Заголовок : Оригинал (Французкий)


Агент 117 скачать торрент


piratbit.org



Скачать Агент 117 через торрент http://i52.fastpic.ru/big/2012/1217/32/da7181b851870f7c1097e13e7fca7332.jpg Скачать фильм Агент 117 через торрент бесплантно в хорошем качестве Описание: Египет, 1955-й год. Каир буквально переполнен шпионами всех мастей. Никто никому не доверяет, все плетут интриги: англичане, ... 10 10 4
Info! Золотая раздача, скачанное не засчитывается.
Торрент: Зарегистрирован [2012-12-16 22:22] · скачан: 140 раз
Статус: √ проверено
Размер: 2.06 GB
Как cкачать? Как скачать Агент 117 через торрент | qTorrent



Последний раз редактировалось: bogyn (2012-12-16 23:47), всего редактировалось 1 раз

28-11-2019 20:33  

Отключить всю рекламу на сайте

16-12-2012 22:59 Агент 117 Скачать торрент  

bogyn

Цитата:

8. Субтитры

8.1 Если имеются. Следует указать язык и вид субтитров: вшитые или отдельный файл.

piratbit.org



16-12-2012 23:23 Агент 117 Скачать торрент  

Скрины впечатляют качеством. Хочется посмотреть. piratbit.org



16-12-2012 23:49 Агент 117 Скачать торрент  

уточнил инфо. о субтитрах.piratbit.org





Последний раз редактировалось: bogyn (2012-12-17 00:06), всего редактировалось 1 раз

16-12-2012 23:51 Агент 117 Скачать торрент  

Соломон Немни писал(а):

Я только не пойму вот, это пародия штолэ???

http://www.kinopoisk.ru/film/194201/piratbit.org



17-12-2012 01:27 Агент 117 Скачать торрент  

    Дорогой пользователь! Огромная просьба, поблагодарите релизера, оцените раздачу и оставьте свои комментарий, если Вы скачали Агент 117 через торрент бесплатно! Внесите свою лепту в развитие PiratBit!
    Комментировать посты могут только пользователи прошедшие не сложную регистрацию
    Показать сообщения:    

    Агент 117 через торрент
    Скачать бесплатно Агент 117
    Агент 117 скачать торрент
    Агент 117 смотреть онлайн
    Cкачать фильм Агент 117 бесплатно
    Агент 117 скачать торрент в хорошем качестве
    Агент 117 смотреть онлайн бесплатно в хорошем качестве


    Вы не можете начинать темы
    Вы не можете отвечать на сообщения
    Вы не можете редактировать свои сообщения
    Вы не можете удалять свои сообщения
    Вы не можете голосовать в опросах
    Вы не можете прикреплять файлы к сообщениям
    Вы можете скачивать файлы