1 сезон

3 сезон

iTunes

1

iTunes

MVO

iTunes

13

1 сезон

RePack

30

Deluxe

pack

Лицензия

ВАЖНО

ИГРА 18+

pack

RePack

MK11

RePack

jed

RePack

fifa19

RePack

RDR2

RePack

NEED FOR SPEED™ PAYBACK

4 сезон

9 сезон

Бесстыжие 9 сезон

Все сериалы

все сериалы на PB.wtf

RePack

FAR CRY 5

Anonymous, добрый вечер, мы катастрофически не успеваем собрать деньги на оплату серверов, помогите нам пожалуйста 5,10,15р., для нас важна любая помощь . В качестве благодарности мы отключим Вам всю рекламу на сайте (укажите свой ник в строку Ваше имя)!

×
  
Magnet ссылка

Ловушка для свингеров / Zebra Lounge (Кари Скогланд) [2001 г., триллер, DVDRip, MVO + Оригинал] piratbit.org

Ловушка для свингеров через торрент piratbit.org

Размер: 1.47 GB | Добавлен: 8 лет 7 мес. назад | Торрент скачан:180 раз
Скачать  

21-12-2012 07:38 Ловушка для свингеров Скачать торрент  

Ловушка для свингеров / Zebra Lounge

Год выпуска: 2001
Страна: Канада
Жанр: триллер
Продолжительность: 01:28:36
Перевод: Профессиональный многоголосый + Оригинал

Режиссер: Кари Скогланд
Продюссер: Пако Алварез, Льюис Чеслер, Дэвид Перлмуттер
Сценарий: Клер Монтгомери, Монте Монтгомери

Премьера в мире: 04.10.2001

Рейтинг MPAA: R



В ролях: Кристи Свенсон, Стивен Болдуин, Брэнди Ледфорд, Дэниэл Магдер, Кэмерон Дэддо, Дара Перлматтер, Винц Коразза, Браин Пол

Описание: Алан и Уэнди — обычная супружеская пара, но с одной проблемой: они больше не устраивают друг друга в постели. Книги, консультации и игрушки из секс-шопов не срабатывают. Все меняет знакомство по объявлению с Джеком и Луизой, обожающими жить «на всю катушку». Поддавшись их уговорам, супруги соглашаются устроить свидание вчетвером. То, что им удалось испытать они не могли и вообразить даже в самых смелых фантазиях. Поставив «эксперимент», Алан и Уэнди решают вернуться к нормальной семейной жизни. Но Джек и Луиза не собираются расставаться с новыми партнерами. Изобретательно плетя сеть интриг, они все больше втягивают Алана и Уэнди в смертельную игру.

Качество: DVDRip
Формат: AVI
Видео кодек: XviD
Аудио кодек: AC3
Видео: 656x368(16:9), 25 fps ~ 1455 kbps avg, 0.24 bit/pixel
Аудио#1: 48 kHz, AC3 Dolby Digital, 3/2 (L,C,R,l,r) + LFE ch ~ 384 kb/s - rus
Аудио#2: 48 kHz, MPEG Layer 3, 2 ch ~ 128 kb/s - rus
Аудио#3: 48 kHz, AC3 Dolby Digital, 3/2 (L,C,R,l,r) + LFE ch ~ 384 kb/s - eng





Общее
Полное имя : Q:TorFZebra.Lounge_2001.avi
Формат : AVI
Формат/Информация : Audio Video Interleave
Размер файла : 1,47 Гбайт
Продолжительность : 1 ч. 28 м.
Общий поток : 2370 Кбит/сек
Программа кодирования : VirtualDubModRus 1.5.10.2 (build 2540/release)
Библиотека кодирования : VirtualDubMod build 2540/release

Видео
Идентификатор : 0
Формат : MPEG-4 Visual
Профиль формата : Advanced Simple@L5
Параметр BVOP формата : 2
Параметр QPel формата : Нет
Параметр GMC формата : Без точки перехода
Параметр матрицы формата : Default (H.263)
Режим смешивания : Сжатый битовый поток
Идентификатор кодека : XVID
Идентификатор кодека/Подсказка : XviD
Продолжительность : 1 ч. 28 м.
Битрейт : 1455 Кбит/сек
Ширина : 656 пикселей
Высота : 368 пикселей
Соотношение сторон : 16:9
Частота кадров : 25,000 кадров/сек
Цветовое пространство : YUV
Субдискретизация насыщенности : 4:2:0
Битовая глубина : 8 бит
Тип развёртки : Прогрессивная
Метод сжатия : С потерями
Бит/(Пиксели*Кадры) : 0.241
Размер потока : 922 Мбайт (61%)
Библиотека кодирования : XviD 57

Аудио #1
Идентификатор : 1
Формат : AC-3
Формат/Информация : Audio Coding 3
Расширение режима : CM (complete main)
Идентификатор кодека : 2000
Продолжительность : 1 ч. 28 м.
Вид битрейта : Постоянный
Битрейт : 384 Кбит/сек
Каналы : 6 каналов
Расположение каналов : Front: L C R, Side: L R, LFE
Частота : 48,0 КГц
Битовая глубина : 16 бит
Метод сжатия : С потерями
Задержка видео : 12 мс.
Размер потока : 243 Мбайт (16%)
Выравнивание : Разделение по промежуткам
Продолжительность промежутка : 40 мс. (1,00 видеокадр)
Время предзагрузки промежутка : 500 мс.
Язык : English

Аудио #2
Идентификатор : 2
Формат : MPEG Audio
Версия формата : Version 1
Профиль формата : Layer 3
Идентификатор кодека : 55
Идентификатор кодека/Подсказка : MP3
Продолжительность : 1 ч. 28 м.
Вид битрейта : Постоянный
Битрейт : 128 Кбит/сек
Каналы : 2 канала
Частота : 48,0 КГц
Метод сжатия : С потерями
Размер потока : 81,1 Мбайт (5%)
Выравнивание : Соединение по промежуткам
Продолжительность промежутка : 40 мс. (1,00 видеокадр)
Время предзагрузки промежутка : 504 мс.

Аудио #3
Идентификатор : 3
Формат : AC-3
Формат/Информация : Audio Coding 3
Расширение режима : CM (complete main)
Идентификатор кодека : 2000
Продолжительность : 1 ч. 28 м.
Вид битрейта : Постоянный
Битрейт : 384 Кбит/сек
Каналы : 6 каналов
Расположение каналов : Front: L C R, Side: L R, LFE
Частота : 48,0 КГц
Битовая глубина : 16 бит
Метод сжатия : С потерями
Размер потока : 243 Мбайт (16%)
Выравнивание : Разделение по промежуткам
Продолжительность промежутка : 40 мс. (1,00 видеокадр)
Время предзагрузки промежутка : 500 мс.


Ловушка для свингеров скачать торрент


piratbit.org



Скачать Ловушка для свингеров через торрент https://pic1.kartinco.top/images/111/pjbp9db7il.jpg Скачать фильм Ловушка для свингеров через торрент бесплантно в хорошем качестве Описание: Алан и Уэнди — обычная супружеская пара, но с одной проблемой: они больше не устраивают друг друга в постели. Книги, консультации ... 10 10 1
Info! Золотая раздача, скачанное не засчитывается.
Торрент: Зарегистрирован [2012-12-21 07:38] · скачан: 180 раз
Статус: √ проверено
Размер: 1.47 GB
Как cкачать? Как скачать Ловушка для свингеров через торрент | UTorrent

28-11-2019 20:33  

Отключить всю рекламу на сайте

21-12-2012 08:09 Ловушка для свингеров Скачать торрент  

Русишь перевод огонь :hospita:piratbit.org



21-12-2012 11:24 Ловушка для свингеров Скачать торрент  

После словосочетаний: "... они больше не устраивают друг друга в постели", качаю...piratbit.org



    Дорогой пользователь! Огромная просьба, поблагодарите релизера, оцените раздачу и оставьте свои комментарий, если Вы скачали Ловушка для свингеров через торрент бесплатно! Внесите свою лепту в развитие PiratBit!
    Комментировать посты могут только пользователи прошедшие не сложную регистрацию
    Показать сообщения:    

    Ловушка для свингеров через торрент
    Скачать бесплатно Ловушка для свингеров
    Ловушка для свингеров скачать торрент
    Ловушка для свингеров смотреть онлайн
    Cкачать фильм Ловушка для свингеров бесплатно
    Ловушка для свингеров скачать торрент в хорошем качестве
    Ловушка для свингеров смотреть онлайн бесплатно в хорошем качестве


    Вы не можете начинать темы
    Вы не можете отвечать на сообщения
    Вы не можете редактировать свои сообщения
    Вы не можете удалять свои сообщения
    Вы не можете голосовать в опросах
    Вы не можете прикреплять файлы к сообщениям
    Вы можете скачивать файлы