2 сезон

iTunes

MVO

1

2 сезон

iTunes

iTunes

1 сезон

RePack

30

Новинка

ВАЖНО

ИГРА 18+

pack

RePack

MK11
pack

Легкие деньги

RePack

jed

RePack

fifa19

RePack

RDR2

RePack

NEED FOR SPEED™ PAYBACK

4 сезон

9 сезон

Бесстыжие 9 сезон

Все сериалы

все сериалы на PB.wtf

RePack

FAR CRY 5

Anonymous, доброе утро, мы не успеваем собрать деньги на оплату серверов за декабрь и январь, помогите нам пожалуйста в это трудное время. В качестве благодарности мы отключим Вам всю рекламу на сайте (укажите свой ник в строку Ваше имя)!

×
  
Magnet ссылка

Забивание камнями Сорайи М / The Stoning of Soraya M (Сайрус Наурасте) [2008 г., драма, HDRip, VO] piratbit.org

Забивание камнями Сорайи М через торрент piratbit.org

Размер: 2.18 GB | Добавлен: 8 лет 1 мес. назад | Торрент скачан:62 раза
Скачать  

21-12-2012 18:40 Забивание камнями Сорайи М Скачать торрент  

Забивание камнями Сорайи М. / The Stoning of Soraya M.

Год выпуска: 2008
Страна: США
Жанр: драма
Продолжительность: 01:54:20
Перевод: Любительский одноголосый
Субтитры: Русские, просматриваются английские (хардсаб)

Режиссер: Сайрус Наурасте
Продюссер: Стефен МакЭвети, Джон Шеперд, Тодд Барнс
Сценарий: Бетси Гиффен Норастех, Сайрус Наурасте, Фрейдон Саебжам

Мировой рейтинг IMDB 7.80 (7 422)


В ролях: Шохре Агдашлу, Можан Марно, Джеймс Кэвизел, Навид Негабан, Али Порташ, Дэвид Диаан, Парвиз Сайяд, Вида Гахремани, Вачик Мангассариан, Бита Шейбани

Описание: У журналиста, работающего в Иране, ломается машина, он просит помощи в местной деревне. Но помощь нужна не ему одному. Здесь он встречает женщину по имени Захра, которая хочет рассказать о своей племяннице Сорайе и о кровавых обстоятельствах ее вчерашней смерти в надежде обличить жестокие законы шариата. Ее последняя и единственная надежда на справедливость — этот журналист, который должен уйти с историей, чтобы рассказать о насилии всему миру.

Качество: HDRip
Формат: AVI
Видео кодек: XviD
Аудио кодек: AC3
Видео: 720x304 (2.37:1), 23.976 fps, XviD build 50 ~2335 kbps avg, 0.45 bit/pixel
Аудио#1: 48 kHz, AC3 Dolby Digital, 3/2 (L,C,R,l,r) + LFE ch, ~384 kbps
Общее
Полное имя : F:ЗакачкиZabivanie.Kamnyami.HDRip.2008.avi
Формат : AVI
Формат/Информация : Audio Video Interleave
Профиль формата : OpenDML
Размер файла : 2,18 Гбайт
Продолжительность : 1 ч. 54 м.
Общий поток : 2726 Кбит/сек
Программа кодирования : VirtualDubMod 1.5.10.3 | www.virtualdub-fr.org || (build 2550/release)
Библиотека кодирования : VirtualDubMod build 2550/release

Видео
Идентификатор : 0
Формат : MPEG-4 Visual
Профиль формата : Advanced Simple@L5
Параметр BVOP формата : 2
Параметр QPel формата : Нет
Параметр GMC формата : Без точки перехода
Параметр матрицы формата : Default (H.263)
Идентификатор кодека : XVID
Идентификатор кодека/Подсказка : XviD
Продолжительность : 1 ч. 54 м.
Битрейт : 2330 Кбит/сек
Ширина : 720 пикселей
Высота : 304 пикселя
Соотношение сторон : 2,35:1
Частота кадров : 23,976 кадра/сек
Цветовое пространство : YUV
Субдискретизация насыщенности : 4:2:0
Битовая глубина : 8 бит
Тип развёртки : Прогрессивная
Метод сжатия : С потерями
Бит/(Пиксели*Кадры) : 0.444
Размер потока : 1,86 Гбайт (85%)
Библиотека кодирования : XviD 1.2.1 (UTC 2008-12-04)

Аудио
Идентификатор : 1
Формат : AC-3
Формат/Информация : Audio Coding 3
Расширение режима : CM (complete main)
Идентификатор кодека : 2000
Продолжительность : 1 ч. 54 м.
Вид битрейта : Постоянный
Битрейт : 384 Кбит/сек
Каналы : 6 каналов
Расположение каналов : Front: L C R, Side: L R, LFE
Частота : 48,0 КГц
Битовая глубина : 16 бит
Метод сжатия : С потерями
Размер потока : 314 Мбайт (14%)
Выравнивание : Разделение по промежуткам
Продолжительность промежутка : 42 мс. (1,00 видеокадр)
Время предзагрузки промежутка : 500 мс.


Забивание камнями Сорайи М. скачать торрент


piratbit.org



Скачать Забивание камнями Сорайи М через торрент http://i52.fastpic.ru/big/2012/1221/d3/aed695c95e6c12897124cb27530b43d3.jpg Скачать фильм Забивание камнями Сорайи М через торрент бесплантно в хорошем качестве Описание: У журналиста, работающего в Иране, ломается машина, он просит помощи в местной деревне. Но помощь нужна не ему одному. Здесь он ... 10 10 2
Info! Золотая раздача, скачанное не засчитывается.
Торрент: Зарегистрирован [2012-12-21 18:40] · скачан: 62 раз
Статус: √ проверено
Размер: 2.18 GB
Как cкачать? Как скачать Забивание камнями Сорайи М через торрент | UTorrent

% Раздел Тема Автор DL S | L
Фильмы [HD 720p, 1080p] (Звук Cam, VO, DVO) [ 5.28 GB ] Забивание камнями Сорайи М. / The Stoning of Soraya M. [2008 BDRip 720p by msltel] VO 2 x VO msltel Скачать
1 | 1
Фильмы [HD 720p, 1080p] (Звук Cam, VO, DVO) [ 11.41 GB ] Забивание камнями Сорайи М. / The Stoning of Soraya M. [2008 BDRip 1080p by msltel] VO 2 x VO msltel Скачать
1 | 0

28-11-2019 20:33  

Отключить всю рекламу на сайте

21-12-2012 18:55 Забивание камнями Сорайи М Скачать торрент  

Жестокий фильм...piratbit.org



21-12-2012 19:07 Забивание камнями Сорайи М Скачать торрент  

ооо да, просто жесть, лучшиб я его не смотрелpiratbit.org



22-12-2012 04:46 Забивание камнями Сорайи М Скачать торрент  

да я всегда знал что это зверье а не люди и этим фильмом это доказываетpiratbit.org



23-12-2012 11:59 Забивание камнями Сорайи М Скачать торрент  

о да,фильм невыносимо жестокий...piratbit.org



29-08-2015 07:50 Забивание камнями Сорайи М Скачать торрент  

станьте кто-нибуть на роздачу, а то уже две недели не могу скачать...piratbit.org



    Дорогой пользователь! Огромная просьба, поблагодарите релизера, оцените раздачу и оставьте свои комментарий, если Вы скачали Забивание камнями Сорайи М через торрент бесплатно! Внесите свою лепту в развитие PiratBit!
    Комментировать посты могут только пользователи прошедшие не сложную регистрацию
    Показать сообщения:    

    Забивание камнями Сорайи М через торрент
    Скачать бесплатно Забивание камнями Сорайи М
    Забивание камнями Сорайи М скачать торрент
    Забивание камнями Сорайи М смотреть онлайн
    Cкачать фильм Забивание камнями Сорайи М бесплатно
    Забивание камнями Сорайи М скачать торрент в хорошем качестве
    Забивание камнями Сорайи М смотреть онлайн бесплатно в хорошем качестве


    Вы не можете начинать темы
    Вы не можете отвечать на сообщения
    Вы не можете редактировать свои сообщения
    Вы не можете удалять свои сообщения
    Вы не можете голосовать в опросах
    Вы не можете прикреплять файлы к сообщениям
    Вы можете скачивать файлы