1 сезон

3 сезон

iTunes

1

iTunes

MVO

iTunes

13

1 сезон

RePack

30

Deluxe

pack

Лицензия

ВАЖНО

ИГРА 18+

pack

RePack

MK11

RePack

jed

RePack

fifa19

RePack

RDR2

RePack

NEED FOR SPEED™ PAYBACK

4 сезон

9 сезон

Бесстыжие 9 сезон

Все сериалы

все сериалы на PB.wtf

RePack

FAR CRY 5

Anonymous, добрый вечер, мы катастрофически не успеваем собрать деньги на оплату серверов, помогите нам пожалуйста 5,10,15р., для нас важна любая помощь . В качестве благодарности мы отключим Вам всю рекламу на сайте (укажите свой ник в строку Ваше имя)!

×
  
Magnet ссылка

Полет Феникса / Flight of the Phoenix (Джон Мур) [2004, Приключения, BDRip-AVC] DUB + Original + Sub (eng., rus.) piratbit.org

Полет Феникса через торрент piratbit.org

Размер: 2.18 GB | Добавлен: 8 лет 7 мес. назад | Торрент скачан:205 раз
Скачать  

23-12-2012 04:50 Полет Феникса Скачать торрент  

Полет Феникса / Flight of the Phoenix

Год выпуска: 2004
Страна: США / 20th Century Fox Film Corporation, Aldrich Group, Davis Entertainment, Optional Pictures
Жанр: Приключения
Продолжительность: 01:52:57
Перевод: Профессиональный (полное дублирование)
Субтитры: Русские, английские
Режиссер: Джон Мур

В ролях: Дэннис Куэйд, Тайриз Гибсон, Джованни Рибизи, Миранда Отто, Тони Каррен, Стики Фингаз, Джейкоб Варгас, Хью Лори, Скотт Майкл Кэмпбелл

Описание: Действие фильма разворачивается в монгольской пустыне, в самом сердце которой терпит крушение грузовой самолет, перевозящий нефтяных вахтовиков. Они возвращались с месторождения, которое перестало приносить прибыль и было закрыто. Решение компании выполнял командир команды самолета. Таким образом, назад он вез озлобленных на него и компанию безработных нефтяников. После крушения, поняв, что помощи ждать неоткуда, команда решает самостоятельно построить самолет и долететь до Пекина, пока жажда, солнце и противоречия между ними не доконали их окончательно...
Бюджет: $45 000 000
Сборы в мире: $34 586 268

Качество: BDRip-AVC [BDREMUX]
Формат: MKV
Видео кодек: H.264
Аудио кодек: AC3
Видео: 1032x440 (2,35:1), 23,976 fps, 1996 Кbps, 0.183 bit/pixel
Аудио#1: 48 kHz, AC3 Dolby Digital, 3/2 (L,C,R,l,r) + LFE ch, ~384.00 kbps avg | RUS
Аудио#2: 48 kHz, AC3 Dolby Digital, 3/2 (L,C,R,l,r) + LFE ch, ~384.00 kbps avg | ENG
General
Unique ID : 243059323316735868793828589735963863401 (0xB6DB85DD0655FA6CAF63B2DE46ED2969)
Complete name : Polet.Feniksa.2004.D.BDRip.x264.potroks.mkv
Format : Matroska
Format version : Version 2
File size : 2.18 GiB
Duration : 1h 52mn
Overall bit rate : 2 765 Kbps
Movie name : -=POTROKS=-
Encoded date : UTC 2012-12-23 03:02:30
Writing application : mkvmerge v5.7.0 ('The Whirlwind') built on Jul 8 2012 20:08:51
Writing library : libebml v1.2.3 + libmatroska v1.3.0

Video
ID : 1
Format : AVC
Format/Info : Advanced Video Codec
Format profile : High@L4.1
Format settings, CABAC : Yes
Format settings, ReFrames : 9 frames
Codec ID : V_MPEG4/ISO/AVC
Duration : 1h 52mn
Bit rate : 1 996 Kbps
Width : 1 032 pixels
Height : 440 pixels
Display aspect ratio : 2.35:1
Original display aspect ratio : 2.35:1
Frame rate mode : Constant
Frame rate : 23.976 fps
Color space : YUV
Chroma subsampling : 4:2:0
Bit depth : 8 bits
Scan type : Progressive
Bits/(Pixel*Frame) : 0.183
Stream size : 1.53 GiB (70%)
Title : Полет Феникса
Writing library : x264 core 128 r2216M 198a7ea
Encoding settings : cabac=1 / ref=10 / deblock=1:-2:-1 / analyse=0x3:0x133 / me=umh / subme=9 / psy=1 / psy_rd=1.05:0.00 / mixed_ref=1 / me_range=48 / chroma_me=1 / trellis=2 / 8x8dct=1 / cqm=0 / deadzone=21,11 / fast_pskip=0 / chroma_qp_offset=-2 / threads=4 / lookahead_threads=1 / sliced_threads=0 / nr=0 / decimate=1 / interlaced=0 / bluray_compat=0 / constrained_intra=0 / bframes=12 / b_pyramid=1 / b_adapt=2 / b_bias=0 / direct=3 / weightb=1 / open_gop=0 / weightp=2 / keyint=240 / keyint_min=23 / scenecut=40 / intra_refresh=0 / rc_lookahead=150 / rc=2pass / mbtree=1 / bitrate=1996 / ratetol=1.0 / qcomp=0.67 / qpmin=0 / qpmax=69 / qpstep=4 / cplxblur=20.0 / qblur=0.5 / vbv_maxrate=20000 / vbv_bufsize=25000 / nal_hrd=none / ip_ratio=1.35 / aq=1:0.85
Language : English
Default : Yes
Forced : No

Audio #1
ID : 2
Format : AC-3
Format/Info : Audio Coding 3
Mode extension : CM (complete main)
Format settings, Endianness : Big
Codec ID : A_AC3
Duration : 1h 52mn
Bit rate mode : Constant
Bit rate : 384 Kbps
Channel(s) : 6 channels
Channel positions : Front: L C R, Side: L R, LFE
Sampling rate : 48.0 KHz
Bit depth : 16 bits
Compression mode : Lossy
Delay relative to video : 27ms
Stream size : 310 MiB (14%)
Title : Dub@R5 | DD 5.1 @ 384kbps
Language : Russian
Default : Yes
Forced : Yes

Audio #2
ID : 3
Format : AC-3
Format/Info : Audio Coding 3
Mode extension : CM (complete main)
Format settings, Endianness : Big
Codec ID : A_AC3
Duration : 1h 52mn
Bit rate mode : Constant
Bit rate : 384 Kbps
Channel(s) : 6 channels
Channel positions : Front: L C R, Side: L R, LFE
Sampling rate : 48.0 KHz
Bit depth : 16 bits
Compression mode : Lossy
Delay relative to video : 27ms
Stream size : 310 MiB (14%)
Title : Original | DD 5.1 @ 384kbps
Language : English
Default : No
Forced : No

Text #1
ID : 4
Format : UTF-8
Codec ID : S_TEXT/UTF8
Codec ID/Info : UTF-8 Plain Text
Language : English
Default : No
Forced : No

Text #2
ID : 5
Format : UTF-8
Codec ID : S_TEXT/UTF8
Codec ID/Info : UTF-8 Plain Text
Language : Russian
Default : No
Forced : No



Автор рипа: piratbit.org



Скачать Полет Феникса через торрент http://i52.fastpic.ru/big/2012/1223/ca/79f60d5681dac2f653f22d04e38f70ca.jpg Скачать фильм Полет Феникса через торрент бесплантно в хорошем качестве Описание: Действие фильма разворачивается в монгольской пустыне, в самом сердце которой терпит крушение грузовой самолет, перевозящий ... 5 10 1
Info! Золотая раздача, скачанное не засчитывается.
Торрент: Зарегистрирован [2012-12-23 04:50] · скачан: 205 раз
Статус: √ проверено
Размер: 2.18 GB
Как cкачать? Как скачать Полет Феникса через торрент | UTorrent

% Раздел Тема Автор DL S | L
Классика зарубежного кино [ 20.97 GB ] Полёт Феникса / The Flight of the Phoenix [1965 BDRip 1080p by msltel] MVO DVO AVO msltel Скачать
1 | 0
Классика зарубежного кино [ 6.63 GB ] Полёт Феникса / The Flight of the Phoenix [1965 BDRip 720p by msltel] MVO DVO AVO msltel Скачать
1 | 0
Классика зарубежного кино [ 3.64 GB ] Полёт Феникса / The Flight of the Phoenix [1965 BDRip by msltel] MVO DVO AVO msltel Скачать
1 | 0
Фильмы до 2000 г. [ 2.18 GB ] Полет Феникса / The Flight of the Phoenix [1965 г BDRip] DVO MVO koenig Скачать
1 | 0
Фильмы с авторской озвучкой [ 2.33 GB ] Полет Феникса / Flight of the Phoenix [2004 BDRip] 3х[AVO] killermax2013 Скачать
1 | 0
Фильмы 2001-2005 [ 2.18 GB ] Полет Феникса / Flight of the Phoenix [2004 DVDRip] gkvtaper Скачать
1 | 0


Последний раз редактировалось: potroks (2012-12-23 08:08), всего редактировалось 1 раз

28-11-2019 20:33  

Отключить всю рекламу на сайте


23-12-2012 05:47 Полет Феникса Скачать торрент  

АААААААААААААААААААААА я первый))))))))))))))))))))))

Молодца!!! Ещё одно такое сообщение и будет тебе "пряник"piratbit.org



23-12-2012 06:27 Полет Феникса Скачать торрент  

Спасибо за дубляж. Забираю.piratbit.org



    Дорогой пользователь! Огромная просьба, поблагодарите релизера, оцените раздачу и оставьте свои комментарий, если Вы скачали Полет Феникса через торрент бесплатно! Внесите свою лепту в развитие PiratBit!
    Комментировать посты могут только пользователи прошедшие не сложную регистрацию
    Показать сообщения:    

    Полет Феникса через торрент
    Скачать бесплатно Полет Феникса
    Полет Феникса скачать торрент
    Полет Феникса смотреть онлайн
    Cкачать фильм Полет Феникса бесплатно
    Полет Феникса скачать торрент в хорошем качестве
    Полет Феникса смотреть онлайн бесплатно в хорошем качестве


    Вы не можете начинать темы
    Вы не можете отвечать на сообщения
    Вы не можете редактировать свои сообщения
    Вы не можете удалять свои сообщения
    Вы не можете голосовать в опросах
    Вы не можете прикреплять файлы к сообщениям
    Вы можете скачивать файлы