2 сезон

iTunes

MVO

1

2 сезон

iTunes

iTunes

1 сезон

RePack

30

Новинка

ВАЖНО

ИГРА 18+

pack

RePack

MK11
pack

Легкие деньги

RePack

jed

RePack

fifa19

RePack

RDR2

RePack

NEED FOR SPEED™ PAYBACK

4 сезон

9 сезон

Бесстыжие 9 сезон

Все сериалы

все сериалы на PB.wtf

RePack

FAR CRY 5

Anonymous, доброй ночи, мы не успеваем собрать деньги на оплату серверов за декабрь и январь, помогите нам пожалуйста в это трудное время. В качестве благодарности мы отключим Вам всю рекламу на сайте (укажите свой ник в строку Ваше имя)!

×
  
Magnet ссылка

Я желаю тебе себя (ТВ) (Станислав Мареев) [2012 г., мелодрама, SATRip, Оригинал] piratbit.org

Я желаю тебе себя через торрент piratbit.org

Размер: 1.39 GB | Добавлен: 8 лет назад | Торрент скачан:291 раз
Скачать  

24-12-2012 04:44 Я желаю тебе себя Скачать торрент  

Я желаю тебе себя (ТВ)

Год выпуска: 2012
Страна: Россия
Жанр: мелодрама
Продолжительность: 01:30:00
Перевод: Оригинал

Режиссер: Станислав Мареев
Продюссер: Григорий Белкин
Сценарий: Григорий Белкин, Станислав Мареев

Мировой рейтинг IMDB


В ролях: Елена Биккулова, Валерий Боровинских, Алексей Нилов, Михаил Ефремов, Анна Лутцева, Андрей Зибров

Описание: Это фильм о чувствах людей, их мечтах и желаниях. Порой для счастья человеку не нужен успех или материальные блага, а хочется просто... другого человека, обожаемого и любимого. Любовь и чувства заставляют наш мир сконцентрироваться на одной персоне, которая кажется его центром, без нее наша жизнь теряет смысл, становится серой и мрачной. В этом случае человек забывает о себе, и все мысли одолевает лишь одна мечта — быть рядом с тем, кто тревожит сердце.

Качество: SATRip
Формат: AVI
Видео кодек: XviD
Аудио кодек: MP3
Видео: XviD, 704x368 (1.913), 25.000 fps, 2 109 Kbps (0.326 bit/pixel)
Аудио#1: MP3 , 48.0 KHz, 2 ch, 192 Kbps, CBR

General
Complete name : H:киноJa.zhelaju.tebe.sebja.2012.XviD.SATRip.avi
Format : AVI
Format/Info : Audio Video Interleave
File size : 1.39 GiB
Duration : 1h 25mn
Overall bit rate : 2 310 Kbps
Writing application : VirtualDubModRus 1.5.10.2 (build 2542/release)
Writing library : VirtualDubMod build 2542/release

Video
ID : 0
Format : MPEG-4 Visual
Format profile : Advanced Simple@L5
Format settings, BVOP : 1
Format settings, QPel : No
Format settings, GMC : No warppoints
Format settings, Matrix : Default (H.263)
Codec ID : XVID
Codec ID/Hint : XviD
Duration : 1h 25mn
Bit rate : 2 103 Kbps
Width : 704 pixels
Height : 368 pixels
Display aspect ratio : 1.913
Frame rate : 25.000 fps
Color space : YUV
Chroma subsampling : 4:2:0
Bit depth : 8 bits
Scan type : Progressive
Compression mode : Lossy
Bits/(Pixel*Frame) : 0.325
Stream size : 1.09 GiB (79%)
Writing library : XviD 1.2.1 (UTC 2008-12-04)

Audio
ID : 1
Format : MPEG Audio
Format version : Version 1
Format profile : Layer 3
Mode : Joint stereo
Mode extension : MS Stereo
Codec ID : 55
Codec ID/Hint : MP3
Duration : 1h 25mn
Bit rate mode : Constant
Bit rate : 192 Kbps
Channel(s) : 2 channels
Sampling rate : 48.0 KHz
Compression mode : Lossy
Stream size : 102 MiB (7%)
Alignment : Aligned on interleaves
Interleave, duration : 40 ms (1.00 video frame)
Interleave, preload duration : 504 ms
Writing library : LAME3.98.4ЄЄЄЄЄЄ]юц


Я желаю тебе себя (ТВ) скачать торрент


piratbit.org



Скачать Я желаю тебе себя через торрент http://pic.kartinco.top/images/1/3njjp454h8.jpg Скачать фильм Я желаю тебе себя через торрент бесплантно в хорошем качестве Описание: Это фильм о чувствах людей, их мечтах и желаниях. Порой для счастья человеку не нужен успех или материальные блага, а хочется ... 5 10 1
Info! Золотая раздача, скачанное не засчитывается.
Торрент: Зарегистрирован [2012-12-24 04:44] · скачан: 291 раз
Статус: √ проверено
Размер: 1.39 GB
Как cкачать? Как скачать Я желаю тебе себя через торрент | UTorrent

28-11-2019 20:33  

Отключить всю рекламу на сайте

    Дорогой пользователь! Огромная просьба, поблагодарите релизера, оцените раздачу и оставьте свои комментарий, если Вы скачали Я желаю тебе себя через торрент бесплатно! Внесите свою лепту в развитие PiratBit!
    Комментировать посты могут только пользователи прошедшие не сложную регистрацию
    Показать сообщения:    

    Я желаю тебе себя через торрент
    Скачать бесплатно Я желаю тебе себя
    Я желаю тебе себя скачать торрент
    Я желаю тебе себя смотреть онлайн
    Cкачать фильм Я желаю тебе себя бесплатно
    Я желаю тебе себя скачать торрент в хорошем качестве
    Я желаю тебе себя смотреть онлайн бесплатно в хорошем качестве


    Вы не можете начинать темы
    Вы не можете отвечать на сообщения
    Вы не можете редактировать свои сообщения
    Вы не можете удалять свои сообщения
    Вы не можете голосовать в опросах
    Вы не можете прикреплять файлы к сообщениям
    Вы можете скачивать файлы