Достать ножи: Стеклянная луковица

MVO

Добыча

Дубляж

Уэнсдэй

1 сезон

Тор

Дубляж

13 клиническая

1 сезон

Жестокая ночь

MVO

Одни из нас

1 сезон

Deluxe

pack

Рекомендуем

30

Пиратка

ВАЖНО

ВАЖНО

Ghostwire

Пиратка

jed

RePack

nioh2

RePack

RDR2

RePack

NEED FOR SPEED™ PAYBACK

RePack

скачать торрент

Кинопоиск HD

Острые козырьки 6 сезон

6 сезон

FAR CRY 6

RePack

скачать торрент

Лицензия

скачать торрент

MVO

1

1 сезон

скачать торрент

1 сезон

скачать торрент

Лицензия

  

Запрещенный прием / Sucker Punch (Зак Снайдер / Zack Snyder) [2011, США, Канада, фэнтези, боевик, триллер, приключения, Blu-ray 1080p (custom)] (Расширенная версия / Extended Cut) Дубляж Sub rus + original eng

Запрещенный прием через торрент piratbit.org

Размер: 31.51 GB | Добавлен: 10 лет назад | Торрент скачан:26 раз
Смотреть онлайн | Скачать | Поддержите нас   

24-12-2012 06:53 Запрещенный прием Скачать торрент  

Запрещенный прием / Sucker Punch
«К такому ты не готов!»


Год выпуска: 2011
Страна: США, Канада
Жанр: фэнтези, боевик, триллер, приключения
Продолжительность: 02:07:29
Перевод: Профессиональный (полное дублирование)[c субтитрами на непереведенные места]
Cубтитры: английские, русские (Full-length Voronine), русские (SDH Voronine), русские (Forced Voronine
Оригинальная аудиодорожка: английский
Формат субтитров: PGS
Тип релиза: Лицензия

Режиссер: Зак Снайдер
Продюссер: Дебора Снайдер, Зак Снайдер, Уэсли Коллер, ...
Сценарий: Зак Снайдер, Стив Шибуя

Бюджет: $82 000 000
Премьера (мир) 21 марта 2011, ...
Премьера (РФ) 31 марта 2011, «Каро-Премьер»
Релиз на DVD 28 июля 2011, «CP-Digital», ...
Релиз на Blu-Ray 28 июля 2011, «CP-Digital», ...




Эмили Браунинг, Эбби Корниш, Джена Мэлоун, Ванесса Энн Хадженс, Джэми Чунг, Карла Гуджино, Джон Хэмм, Оскар Айзек, Скотт Гленн, Вики Ламберт


Действие развернется в 1950 году. Молодую девушку по настоянию ее злодейского отчима определяют в больницу для душевнобольных, где спустя пять дней главную героиню лоботомируют. Чтобы оградиться от боли, она выдумывает сказочный мир, где и начинает планировать свой побег — для этого ей нужно раздобыть пять предметов.

Качество: Blu-ray 1080p (custom)
Формат: BDMV
Видео кодек: H.264
Аудио кодек: DTS-HD,AC3
Видео: 1920x1080p / 23,976 fps / 16:9 / High Profile 4.1, H.264, ~ 23880 kbps
Видео#2: 720x480p / 23,976 fps / 16:9 / High Profile 3.2, H.264, ~ 957 kbps
Аудио#1: DTS-HD Master Audio 5.1 / 48 kHz / 4105 kbps / 24-bit (DTS Core: 5.1 / 48 kHz / 1509 kbps / 24-bit) |English
Аудио#2: AC3 5.1 / 48 kHz / 640 kbps / DN -4dB |Russian|
Аудио#3: AC3 5.1 / 48 kHz / 640 kbps / DN -4dB |Ukrainian|
Аудио#4: DTS Express 1.0 / 48 kHz / 96 kbps / 16-bit |English|
• Запрещенный прием: короткометражки (HD, 11:23);
• За кадром (HD, 5:41)
• Расширенный режим просмотра "Картинка-в-картинке" (начнется воспроизведение автоматически, выйти можно в любой момент нажав "Top Menu" или "Next chapter")
Диск пересобран из оригинального blu-ray, используемое програмное обеспечение: BD Reauthor и Sonic Scenarist BD, Adobe Photoshop, SubRip, SubtitleWorkshop, Sony Sound Forge, Eac3to, DTS-HD Suite.
Воспроизведение проверено на Arcsoft Total Media Player 5, Arcsoft Total Media Player 3, Power DVD10, Scenarist QC 1.5, Dune BD-Prime 3.0 и бытовом блурей плеере LG BX-580





Общее
Полное имя : Запрещенный прием-Расширенная версия
Формат : Blu-ray movie
Профиль формата : BD-Java
Продолжительность : 2 ч. 7 м.
Режим общего битрейта : Переменный
Общий поток : 1 бит/сек

Видео #1
Идентификатор : 4113 (0x1011)
Идентификатор меню : 1 (0x1)
Формат : AVC
Формат/Информация : Advanced Video Codec
Профиль формата : High@L4.1
Параметр CABAC формата : Да
Параметр ReFrames формата : 2 кадра
Параметр GOP формата : M=1, N=10
Идентификатор кодека : 27
Продолжительность : 2 ч. 7 м.
Вид битрейта : Переменный
Ширина : 1920 пикселей
Высота : 1080 пикселей
Соотношение сторон : 16:9
Частота кадров : 23,976 кадра/сек
Цветовое пространство : YUV
Субдискретизация насыщенности : 4:2:0
Битовая глубина : 8 бит
Оригинал : 00100.m2ts

Видео #2
Идентификатор : 6912 (0x1B00)
Идентификатор меню : 1 (0x1)
Формат : AVC
Формат/Информация : Advanced Video Codec
Профиль формата : High@L3.2
Параметр CABAC формата : Да
Параметр ReFrames формата : 2 кадра
Параметр GOP формата : M=1, N=22
Идентификатор кодека : 27
Продолжительность : 2 ч. 7 м.
Вид битрейта : Переменный
Ширина : 720 пикселей
Высота : 480 пикселей
Соотношение сторон : 16:9
Частота кадров : 23,976 кадра/сек
Стандарт вещания : NTSC
Цветовое пространство : YUV
Субдискретизация насыщенности : 4:2:0
Битовая глубина : 8 бит
Тип развёртки : Прогрессивная
Оригинал : 00100.m2ts

Аудио #1
Идентификатор : 4352 (0x1100)
Идентификатор меню : 1 (0x1)
Формат : DTS
Формат/Информация : Digital Theater Systems
Профиль формата : MA / Core
Режим смешивания : Stream extension
Идентификатор кодека : 134
Продолжительность : 2 ч. 7 м.
Вид битрейта : Переменный
Битрейт : 2812 Кбит/сек / 1510 Кбит/сек
Каналы : 6 каналов
Расположение каналов : Front: L C R, Side: L R, LFE
Частота : 48,0 КГц
Битовая глубина : 24 бит
Метод сжатия : Без потерь / Lossy
Язык : English
Оригинал : 00100.m2ts

Аудио #2
Идентификатор : 4353 (0x1101)
Идентификатор меню : 1 (0x1)
Формат : AC-3
Формат/Информация : Audio Coding 3
Расширение режима : CM (complete main)
Параметр Endianness формата : Big
Идентификатор кодека : 129
Продолжительность : 2 ч. 7 м.
Вид битрейта : Постоянный
Битрейт : 640 Кбит/сек
Каналы : 6 каналов
Расположение каналов : Front: L C R, Side: L R, LFE
Частота : 48,0 КГц
Битовая глубина : 16 бит
Метод сжатия : С потерями
Размер потока : 584 Мбайт (2%)
Язык : non
dialnorm : -27
dialnorm/String : -27 dB
compr : -0.28
compr/String : -0.28 dB
bsid : 6
dialnorm_Average : -27
dialnorm_Average/String : -27 dB
dialnorm_Minimum : -27
dialnorm_Minimum/String : -27 dB
dialnorm_Maximum : -27
dialnorm_Maximum/String : -27 dB
dialnorm_Count : 2
compr_Average : -0.28
compr_Average/String : -0.28 dB
compr_Minimum : -0.28
compr_Minimum/String : -0.28 dB
compr_Maximum : -0.28
compr_Maximum/String : -0.28 dB
compr_Count : 2
Оригинал : 00100.m2ts

Аудио #3
Идентификатор : 4354 (0x1102)
Идентификатор меню : 1 (0x1)
Формат : AC-3
Формат/Информация : Audio Coding 3
Расширение режима : CM (complete main)
Параметр Endianness формата : Big
Идентификатор кодека : 129
Продолжительность : 2 ч. 7 м.
Вид битрейта : Постоянный
Битрейт : 640 Кбит/сек
Каналы : 6 каналов
Расположение каналов : Front: L C R, Side: L R, LFE
Частота : 48,0 КГц
Битовая глубина : 16 бит
Метод сжатия : С потерями
Размер потока : 584 Мбайт (2%)
Язык : non
dialnorm : -27
dialnorm/String : -27 dB
compr : -0.28
compr/String : -0.28 dB
bsid : 6
dialnorm_Average : -27
dialnorm_Average/String : -27 dB
dialnorm_Minimum : -27
dialnorm_Minimum/String : -27 dB
dialnorm_Maximum : -27
dialnorm_Maximum/String : -27 dB
dialnorm_Count : 2
compr_Average : -0.28
compr_Average/String : -0.28 dB
compr_Minimum : -0.28
compr_Minimum/String : -0.28 dB
compr_Maximum : -0.28
compr_Maximum/String : -0.28 dB
compr_Count : 2
Оригинал : 00100.m2ts

Аудио #4
Идентификатор : 4355 (0x1103)
Идентификатор меню : 1 (0x1)
Формат : AC-3
Формат/Информация : Audio Coding 3
Профиль формата : HD
Расширение режима : CM (complete main)
Параметр Endianness формата : Big
Идентификатор кодека : 129
Продолжительность : 2 ч. 7 м.
Вид битрейта : Постоянный
Битрейт : 640 Кбит/сек
Каналы : 6 каналов
Расположение каналов : Front: L C R, Side: L R, LFE
Частота : 48,0 КГц
Битовая глубина : 16 бит
Метод сжатия : С потерями
Размер потока : 584 Мбайт (2%)
Язык : non
dialnorm : -27
dialnorm/String : -27 dB
compr : -0.28
compr/String : -0.28 dB
bsid : 6
dialnorm_Average : -27
dialnorm_Average/String : -27 dB
dialnorm_Minimum : -27
dialnorm_Minimum/String : -27 dB
dialnorm_Maximum : -27
dialnorm_Maximum/String : -27 dB
dialnorm_Count : 2
compr_Average : -0.28
compr_Average/String : -0.28 dB
compr_Minimum : -0.28
compr_Minimum/String : -0.28 dB
compr_Maximum : -0.28
compr_Maximum/String : -0.28 dB
compr_Count : 2
Оригинал : 00100.m2ts

Аудио #5
Идентификатор : 4356 (0x1104)
Идентификатор меню : 1 (0x1)
Формат : AC-3
Формат/Информация : Audio Coding 3
Расширение режима : CM (complete main)
Параметр Endianness формата : Big
Идентификатор кодека : 129
Продолжительность : 2 ч. 7 м.
Вид битрейта : Постоянный
Битрейт : 640 Кбит/сек
Каналы : 6 каналов
Расположение каналов : Front: L C R, Side: L R, LFE
Частота : 48,0 КГц
Битовая глубина : 16 бит
Метод сжатия : С потерями
Размер потока : 584 Мбайт (2%)
Язык : Russian
dialnorm : -27
dialnorm/String : -27 dB
compr : -0.28
compr/String : -0.28 dB
bsid : 8
dialnorm_Average : -27
dialnorm_Average/String : -27 dB
dialnorm_Minimum : -27
dialnorm_Minimum/String : -27 dB
dialnorm_Maximum : -27
dialnorm_Maximum/String : -27 dB
dialnorm_Count : 354
compr_Average : 15.17
compr_Average/String : 15.17 dB
compr_Minimum : -0.28
compr_Minimum/String : -0.28 dB
compr_Maximum : 15.19
compr_Maximum/String : 15.19 dB
compr_Count : 354
dynrng_Average : 0.63
dynrng_Average/String : 0.63 dB
dynrng_Minimum : 0.00
dynrng_Minimum/String : 0.00 dB
dynrng_Maximum : 1.02
dynrng_Maximum/String : 1.02 dB
dynrng_Count : 354
Оригинал : 00100.m2ts

Аудио #6
Идентификатор : 4357 (0x1105)
Идентификатор меню : 1 (0x1)
Формат : AC-3
Формат/Информация : Audio Coding 3
Расширение режима : CM (complete main)
Параметр Endianness формата : Big
Идентификатор кодека : 129
Продолжительность : 2 ч. 7 м.
Вид битрейта : Постоянный
Битрейт : 640 Кбит/сек
Каналы : 6 каналов
Расположение каналов : Front: L C R, Side: L R, LFE
Частота : 48,0 КГц
Битовая глубина : 16 бит
Метод сжатия : С потерями
Размер потока : 584 Мбайт (2%)
Язык : non
dialnorm : -27
dialnorm/String : -27 dB
compr : -0.28
compr/String : -0.28 dB
bsid : 6
dialnorm_Average : -27
dialnorm_Average/String : -27 dB
dialnorm_Minimum : -27
dialnorm_Minimum/String : -27 dB
dialnorm_Maximum : -27
dialnorm_Maximum/String : -27 dB
dialnorm_Count : 2
compr_Average : -0.28
compr_Average/String : -0.28 dB
compr_Minimum : -0.28
compr_Minimum/String : -0.28 dB
compr_Maximum : -0.28
compr_Maximum/String : -0.28 dB
compr_Count : 2
Оригинал : 00100.m2ts

Аудио #7
Идентификатор : 4358 (0x1106)
Идентификатор меню : 1 (0x1)
Формат : AC-3
Формат/Информация : Audio Coding 3
Расширение режима : CM (complete main)
Параметр Endianness формата : Big
Идентификатор кодека : 129
Продолжительность : 2 ч. 7 м.
Вид битрейта : Постоянный
Битрейт : 640 Кбит/сек
Каналы : 6 каналов
Расположение каналов : Front: L C R, Side: L R, LFE
Частота : 48,0 КГц
Битовая глубина : 16 бит
Метод сжатия : С потерями
Размер потока : 584 Мбайт (2%)
Язык : Ukrainian
dialnorm : -27
dialnorm/String : -27 dB
compr : -0.28
compr/String : -0.28 dB
bsid : 8
dialnorm_Average : -27
dialnorm_Average/String : -27 dB
dialnorm_Minimum : -27
dialnorm_Minimum/String : -27 dB
dialnorm_Maximum : -27
dialnorm_Maximum/String : -27 dB
dialnorm_Count : 354
compr_Average : 15.17
compr_Average/String : 15.17 dB
compr_Minimum : -0.28
compr_Minimum/String : -0.28 dB
compr_Maximum : 15.19
compr_Maximum/String : 15.19 dB
compr_Count : 354
dynrng_Average : 0.88
dynrng_Average/String : 0.88 dB
dynrng_Minimum : 0.00
dynrng_Minimum/String : 0.00 dB
dynrng_Maximum : 1.02
dynrng_Maximum/String : 1.02 dB
dynrng_Count : 354
Оригинал : 00100.m2ts

Аудио #8
Идентификатор : 4359 (0x1107)
Идентификатор меню : 1 (0x1)
Формат : AC-3
Формат/Информация : Audio Coding 3
Профиль формата : Dolby Digital
Расширение режима : CM (complete main)
Параметр Endianness формата : Big
Идентификатор кодека : 129
Продолжительность : 2 ч. 7 м.
Вид битрейта : Постоянный
Битрейт : 192 Кбит/сек
Каналы : 2 канала
Расположение каналов : Front: L R
Частота : 48,0 КГц
Битовая глубина : 16 бит
Метод сжатия : С потерями
Размер потока : 175 Мбайт (1%)
Язык : non
dsurmod : 2
dsurmod/String : Dolby Surround encoded
dialnorm : -27
dialnorm/String : -27 dB
compr : -0.28
compr/String : -0.28 dB
bsid : 6
dialnorm_Average : -27
dialnorm_Average/String : -27 dB
dialnorm_Minimum : -27
dialnorm_Minimum/String : -27 dB
dialnorm_Maximum : -27
dialnorm_Maximum/String : -27 dB
dialnorm_Count : 2
compr_Average : -0.28
compr_Average/String : -0.28 dB
compr_Minimum : -0.28
compr_Minimum/String : -0.28 dB
compr_Maximum : -0.28
compr_Maximum/String : -0.28 dB
compr_Count : 2
Оригинал : 00100.m2ts

Аудио #9
Идентификатор : 6656 (0x1A00)
Идентификатор меню : 1 (0x1)
Формат : DTS
Формат/Информация : Digital Theater Systems
Профиль формата : Express
Идентификатор кодека : 162
Продолжительность : 2 ч. 7 м.
Вид битрейта : Постоянный
Битрейт : 96,0 Кбит/сек
Каналы : 1 канал
Частота : 48,0 КГц
Битовая глубина : 16 бит
Метод сжатия : С потерями
Размер потока : 87,6 Мбайт (0%)
Язык : English
Оригинал : 00100.m2ts

Текст #1
Идентификатор : 4608 (0x1200)
Идентификатор меню : 1 (0x1)
Формат : PGS
Идентификатор кодека : 144
Продолжительность : 2 ч. 7 м.
Задержка видео : 8 с. 926 мс.
Язык : English
Оригинал : 00100.m2ts

Текст #2
Идентификатор : 4609 (0x1201)
Идентификатор меню : 1 (0x1)
Формат : PGS
Идентификатор кодека : 144
Продолжительность : 2 ч. 7 м.
Язык : non
Оригинал : 00100.m2ts

Текст #3
Идентификатор : 4610 (0x1202)
Идентификатор меню : 1 (0x1)
Формат : PGS
Идентификатор кодека : 144
Продолжительность : 2 ч. 7 м.
Язык : non
Оригинал : 00100.m2ts

Текст #4
Идентификатор : 4611 (0x1203)
Идентификатор меню : 1 (0x1)
Формат : PGS
Идентификатор кодека : 144
Продолжительность : 2 ч. 7 м.
Язык : non
Оригинал : 00100.m2ts

Текст #5
Идентификатор : 4612 (0x1204)
Идентификатор меню : 1 (0x1)
Формат : PGS
Идентификатор кодека : 144
Язык : non
Оригинал : 00100.m2ts

Текст #6
Идентификатор : 4613 (0x1205)
Идентификатор меню : 1 (0x1)
Формат : PGS
Идентификатор кодека : 144
Язык : non
Оригинал : 00100.m2ts

Текст #7
Идентификатор : 4614 (0x1206)
Идентификатор меню : 1 (0x1)
Формат : PGS
Идентификатор кодека : 144
Язык : non
Оригинал : 00100.m2ts

Текст #8
Идентификатор : 4615 (0x1207)
Идентификатор меню : 1 (0x1)
Формат : PGS
Идентификатор кодека : 144
Язык : non
Оригинал : 00100.m2ts

Текст #9
Идентификатор : 4616 (0x1208)
Идентификатор меню : 1 (0x1)
Формат : PGS
Идентификатор кодека : 144
Язык : non
Оригинал : 00100.m2ts

Текст #10
Идентификатор : 4617 (0x1209)
Идентификатор меню : 1 (0x1)
Формат : PGS
Идентификатор кодека : 144
Язык : non
Оригинал : 00100.m2ts

Текст #11
Идентификатор : 4618 (0x120A)
Идентификатор меню : 1 (0x1)
Формат : PGS
Идентификатор кодека : 144
Язык : non
Оригинал : 00100.m2ts

Текст #12
Идентификатор : 4619 (0x120B)
Идентификатор меню : 1 (0x1)
Формат : PGS
Идентификатор кодека : 144
Язык : non
Оригинал : 00100.m2ts

Текст #13
Идентификатор : 4620 (0x120C)
Идентификатор меню : 1 (0x1)
Формат : PGS
Идентификатор кодека : 144
Язык : non
Оригинал : 00100.m2ts

Текст #14
Идентификатор : 4621 (0x120D)
Идентификатор меню : 1 (0x1)
Формат : PGS
Идентификатор кодека : 144
Язык : non
Оригинал : 00100.m2ts

Текст #15
Идентификатор : 4622 (0x120E)
Идентификатор меню : 1 (0x1)
Формат : PGS
Идентификатор кодека : 144
Язык : non
Оригинал : 00100.m2ts

Текст #16
Идентификатор : 4623 (0x120F)
Идентификатор меню : 1 (0x1)
Формат : PGS
Идентификатор кодека : 144
Язык : non
Оригинал : 00100.m2ts

Текст #17
Идентификатор : 4624 (0x1210)
Идентификатор меню : 1 (0x1)
Формат : PGS
Идентификатор кодека : 144
Язык : non
Оригинал : 00100.m2ts

Текст #18
Идентификатор : 4625 (0x1211)
Идентификатор меню : 1 (0x1)
Формат : PGS
Идентификатор кодека : 144
Язык : non
Оригинал : 00100.m2ts

Текст #19
Идентификатор : 4626 (0x1212)
Идентификатор меню : 1 (0x1)
Формат : PGS
Идентификатор кодека : 144
Задержка видео : 8 с. 926 мс.
Язык : Russian
Оригинал : 00100.m2ts

Текст #20
Идентификатор : 4627 (0x1213)
Идентификатор меню : 1 (0x1)
Формат : PGS
Идентификатор кодека : 144
Язык : non
Оригинал : 00100.m2ts

Текст #21
Идентификатор : 4628 (0x1214)
Идентификатор меню : 1 (0x1)
Формат : PGS
Идентификатор кодека : 144
Язык : non
Оригинал : 00100.m2ts

Текст #22
Идентификатор : 4629 (0x1215)
Идентификатор меню : 1 (0x1)
Формат : PGS
Идентификатор кодека : 144
Язык : non
Оригинал : 00100.m2ts

Текст #23
Идентификатор : 4630 (0x1216)
Идентификатор меню : 1 (0x1)
Формат : PGS
Идентификатор кодека : 144
Задержка видео : 8 с. 926 мс.
Язык : Russian
Оригинал : 00100.m2ts

Текст #24
Идентификатор : 4631 (0x1217)
Идентификатор меню : 1 (0x1)
Формат : PGS
Идентификатор кодека : 144
Язык : non
Оригинал : 00100.m2ts

Текст #25
Идентификатор : 4632 (0x1218)
Идентификатор меню : 1 (0x1)
Формат : PGS
Идентификатор кодека : 144
Язык : non
Оригинал : 00100.m2ts

Текст #26
Идентификатор : 4633 (0x1219)
Идентификатор меню : 1 (0x1)
Формат : PGS
Идентификатор кодека : 144
Язык : Russian
Оригинал : 00100.m2ts

Текст #27
Идентификатор : 4634 (0x121A)
Идентификатор меню : 1 (0x1)
Формат : PGS
Идентификатор кодека : 144
Язык : Russian
Оригинал : 00100.m2ts

Меню
00:00:00.000 : Chapter 1
02:07:29.642 : Chapter 2

Релиз предоставлен:by АДмин



Скачать Запрещенный прием через торрент http://i22.fastpic.ru/big/2011/0605/33/cf767bc488987778c11858b97a5cce33.gif Скачать, смотреть онлайн Запрещенный прием бесплантно в хорошем качестве Год выпуска: 2011Страна: США, КанадаЖанр: фэнтези, боевик, триллер, приключенияПродолжительность: 02:07:29Перевод: Профессиональный (полное ... 8.9 10 9
Info! Золотая раздача, скачанное не засчитывается.
Торрент: Зарегистрирован [2012-12-24 06:53] · скачан: 26 раз
Статус: √ проверено
Размер: 31.51 GB
Как cкачать? Как скачать Запрещенный прием через торрент | UTorrent

28-11-2019 20:33  


Отключить вcю реклaмy на сайте, в т.ч. и в плеере онлайн просмотра!


24-12-2012 08:16 Запрещенный прием Скачать торрент  

24-12-2012 08:26 Запрещенный прием Скачать торрент  

Бредятина редкосная.Очень жаль что режисер после Часовых опускается до подобных экспериментов,где хорошего нет.Помоему позитив должен быть всегда а тут мало того что сюжет про психушку,так еще и сценарий про глюки.Я лично не получил удовольствия.Хотя сьемки на высоком современном уровне. :shoot2:



24-12-2012 10:40 Запрещенный прием Скачать торрент  

отличный фильм!



24-12-2012 11:43 Запрещенный прием Скачать торрент  

brich509 писал(а):

отличный фильм!

Чем отличный?пиши поконкретней?



24-12-2012 15:04 Запрещенный прием Скачать торрент  

Хороший фильм, расписывать школоло чем он хорош, не стоит, все равно не поймут, это не трансформеры.



    Дорогой пользователь! Огромная просьба, поблагодарите релизера, оцените раздачу и оставьте свои комментарий, если Вы скачали Запрещенный прием через торрент бесплатно!!
    Комментировать посты могут только пользователи прошедшие не сложную регистрацию
    Показать сообщения:    


    Запрещенный прием через торрент
    Скачать бесплатно Запрещенный прием
    Запрещенный прием скачать торрент
    Запрещенный прием смотреть онлайн
    Cкачать фильм Запрещенный прием бесплатно
    Запрещенный прием скачать торрент в хорошем качестве
    Запрещенный прием смотреть онлайн бесплатно в хорошем качестве
    Вы не можете начинать темы
    Вы не можете отвечать на сообщения
    Вы не можете редактировать свои сообщения
    Вы не можете удалять свои сообщения
    Вы не можете голосовать в опросах
    Вы не можете прикреплять файлы к сообщениям
    Вы можете скачивать файлы
    Запрещенный прием / Sucker Punch [2011, США, Канада, фэнтези, боевик, триллер, приключения, Blu-ray 1080p ] Дубляж Sub rus + original eng смотреть онлайн, скачать торрент picoco.icu