Ссылка на приватное зеркало нашего сайта всего за 1$. Внимание количество ограничено!!!

2 сезон

iTunes

iTunes

1

iTunes

iTunes

iTunes

WEBRip

iTunes

30
pack

Вам бонус

ВАЖНО

!!Акция!!

Alien_RageХит недели

RePack

Horizon Zero Dawn

ИГРА 18+

pack

RePack

jed

!!Акция!!

Alien_Rage

RePack

fifa19

RePack

Assassins Creed: Odyssey

RePack

NEED FOR SPEED™ PAYBACK

4 сезон

9 сезон

Бесстыжие 9 сезон

Все сериалы

все сериалы на PB.wtf

RePack

FAR CRY 5
  

Вторжение / Breaking and Entering (Энтони Мингелла) [2006 г., триллер, драма, мелодрама, HDRip, MVO] piratbit.org

Вторжение через торрент piratbit.org

Размер: 2.17 GB | Добавлен: 7 лет 8 мес. назад | Торрент скачан:54 раза
Скачать  

29-12-2012 15:03 Вторжение Скачать торрент  

Вторжение / Breaking and Entering

Год выпуска: 2006
Страна: Великобритания, США
Жанр: триллер, драма, мелодрама
Продолжительность: 01:58:48
Перевод: Профессиональный многоголосый

Режиссер: Энтони Мингелла
Продюссер: Тим Брикнелл, Энтони Мингелла, Сидни Поллак
Сценарий: Энтони Мингелла

Премьера в мире: 13 сентября 2006



В ролях: Джуд Лоу, Робин Райт, Мартин Фриман, Жюльет Бинош, Рафи Гаврон, Эд Вествик, Срджан Сорик, Велибор Топик, Рэйд Лазар, Тин-Тин Ху

Описание: Молодой архитектор пейзажей Уилл переживает кризис, как в профессиональной, так и в личной жизни. Когда в офис, который находится в старой части Лондона, влезает вор, чтобы ограбить его, в жизни Уилла начинается новый период. Встреча с этим молодым вором-мусульманином, заставляет молодого архитектора переосмыслить всю свою жизнь. Он должен переоценить все свои жизненные ценности, расставить другие акценты, и кардинально поменять свои устои. Благодаря вору, жизнь Уилла меняется.

Качество: HDRip
Формат: AVI
Видео кодек: XviD
Аудио кодек: AC3
Видео: 720x304 (2.37:1), 23.976 fps, XviD build 50 ~1972 kbps avg, 0.38 bit/pixel
Аудио#1: русский 48 kHz, AC3 Dolby Digital, 2/0 (L,R) ch, ~192 kbps Профессиональный многоголосый
Аудио#2: английский 48 kHz, AC3 Dolby Digital, 3/2 (L,C,R,l,r) + LFE ch, ~448 kbps Оригинал




Общее
Полное имя : H:Vtorzhenie.avi
Формат : AVI
Формат/Информация : Audio Video Interleave
Профиль формата : OpenDML
Настройки формата : rec
Размер файла : 2,17 Гбайт
Продолжительность : 1 ч. 58 м.
Общий поток : 2620 Кбит/сек
Программа кодирования : AVI-Mux GUI 1.17.8.3, Feb 16 201019:42:50

Видео
Идентификатор : 0
Формат : MPEG-4 Visual
Профиль формата : Advanced Simple@L5
Параметр BVOP формата : 1
Параметр QPel формата : Нет
Параметр GMC формата : Без точки перехода
Параметр матрицы формата : Выборочная
Идентификатор кодека : XVID
Идентификатор кодека/Подсказка : XviD
Продолжительность : 1 ч. 58 м.
Битрейт : 1972 Кбит/сек
Ширина : 720 пикселей
Высота : 304 пикселя
Соотношение сторон : 2,35:1
Частота кадров : 23,976 кадра/сек
Цветовое пространство : YUV
Субдискретизация насыщенности : 4:2:0
Битовая глубина : 8 бит
Тип развёртки : Прогрессивная
Метод сжатия : С потерями
Бит/(Пиксели*Кадры) : 0.376
Размер потока : 1,64 Гбайт (75%)
Библиотека кодирования : XviD 1.2.1 (UTC 2008-12-04)

Аудио #1
Идентификатор : 1
Формат : AC-3
Формат/Информация : Audio Coding 3
Расширение режима : CM (complete main)
Параметр Endianness формата : Big
Идентификатор кодека : 2000
Продолжительность : 1 ч. 58 м.
Вид битрейта : Постоянный
Битрейт : 192 Кбит/сек
Каналы : 2 канала
Расположение каналов : Front: L R
Частота : 48,0 КГц
Битовая глубина : 16 бит
Метод сжатия : С потерями
Размер потока : 163 Мбайт (7%)
Выравнивание : Соединение по промежуткам
Продолжительность промежутка : 64 мс. (1,53 видеокадра)
Время предзагрузки промежутка : 192 мс.

Аудио #2
Идентификатор : 2
Формат : AC-3
Формат/Информация : Audio Coding 3
Расширение режима : CM (complete main)
Параметр Endianness формата : Big
Идентификатор кодека : 2000
Продолжительность : 1 ч. 58 м.
Вид битрейта : Постоянный
Битрейт : 448 Кбит/сек
Каналы : 6 каналов
Расположение каналов : Front: L C R, Side: L R, LFE
Частота : 48,0 КГц
Битовая глубина : 16 бит
Метод сжатия : С потерями
Размер потока : 381 Мбайт (17%)
Выравнивание : Соединение по промежуткам
Продолжительность промежутка : 64 мс. (1,53 видеокадра)
Время предзагрузки промежутка : 192 мс.


Вторжение скачать торрент


piratbit.org



Скачать Вторжение через торрент http://pic.kartinco.top/images/1/yo1pv7bcef.png Скачать фильм Вторжение через торрент бесплантно в хорошем качестве Описание: Молодой архитектор пейзажей Уилл переживает кризис, как в профессиональной, так и в личной жизни. Когда в офис, который находится ... 5 10 1
Info! Золотая раздача, скачанное не засчитывается.
Торрент: Зарегистрирован [2012-12-29 15:03] · скачан: 54 раз
Статус: √ проверено
Размер: 2.17 GB
Как cкачать? Как скачать Вторжение через торрент | qTorrent

28-11-2019 20:33  

Отключить всю рекламу на сайте

29-12-2012 16:41 Вторжение Скачать торрент  

Супер, Мингела - крутяк режиссер, всем советую посмотреть. Спасибо!piratbit.org



    Дорогой пользователь! Огромная просьба, поблагодарите релизера, оцените раздачу и оставьте свои комментарий, если Вы скачали Вторжение через торрент бесплатно! Внесите свою лепту в развитие PiratBit!
    Комментировать посты могут только пользователи прошедшие не сложную регистрацию
    Показать сообщения:    

    Вторжение через торрент
    Скачать бесплатно Вторжение
    Вторжение скачать торрент
    Вторжение смотреть онлайн
    Cкачать фильм Вторжение бесплатно
    Вторжение скачать торрент в хорошем качестве
    Вторжение смотреть онлайн бесплатно в хорошем качестве


    Вы не можете начинать темы
    Вы не можете отвечать на сообщения
    Вы не можете редактировать свои сообщения
    Вы не можете удалять свои сообщения
    Вы не можете голосовать в опросах
    Вы не можете прикреплять файлы к сообщениям
    Вы можете скачивать файлы