Ссылка на приватное зеркало нашего сайта всего за 1$. Внимание количество ограничено!!!

2 сезон

iTunes

iTunes

1

iTunes

iTunes

iTunes

WEBRip

iTunes

30
pack

Забери бонус

ВАЖНО

!!Акция!!

Alien_RageХит недели

RePack

RESIDENT EVIL 3: NEMESIS REMAKE

ИГРА 18+

pack

RePack

jed

!!Акция!!

Alien_Rage

RePack

fifa19

RePack

Assassins Creed: Odyssey

RePack

NEED FOR SPEED™ PAYBACK

4 сезон

9 сезон

Бесстыжие 9 сезон

Все сериалы

все сериалы на PB.wtf

RePack

FAR CRY 5
  

Постал / Postal (Уве Болл) [2007 г., боевик, триллер, комедия, DVDRip-AVC, Профессиональный двухголосый] piratbit.org

Постал через торрент piratbit.org

Размер: 4.81 GB | Добавлен: 7 лет 9 мес. назад | Торрент скачан:67 раз
Скачать  

29-12-2012 19:15 Постал Скачать торрент  

Постал / Postal
Год выпуска: 2007
Страна: США, Канада, Германия
Жанр: боевик, триллер, комедия
Продолжительность: 01:40:22
Перевод: Профессиональный двухголосый / авторский одноголосый (Пучков, Дмитрий Юрьевич)
Режиссер: Уве Болл
Продюссер: Уве Болл, Дэн Кларк, Винс Десидерио
Сценарий: Уве Болл, Брайан С. Найт
Бюджет: $15 000 000
Премьера в мире: 21 июля 2007

В ролях: Зак Уорд,Дэйв Фоли,Крис Коппола,Джеки Тон,Дж.К. Симмонс,Ральф Мёллер,Верн Тройер,Крис Спенсер,Ларри Томас,Майкл Паре,
Описание: По мотивам компьютерной трэш-игры Postal. В городе Парадиз строят огромный развлекательный центр, и в один из магазинов завозят партии игрушек Крочи. Эти игрушки в форме задницы становятся объектом пристального внимания двух группировок.
Террористы хотят выкрасть их, чтобы зашить в каждую штамм вируса птичьего гриппа. А банда хиппи хочет украсть Крочи, чтобы заработать. Между этими двумя «компаниями» мечется невезучий чувак, у которого в жизни все плохо. В какой-то момент парню все надоедает, и он устраивает в Парадизе «веселую» кровавую баню
Доп. информация: зрителям, достигшим 18 лет

Качество: DVDRip-AVC
Формат: MKV
Видео кодек: AVC
Аудио кодек: AC3 / DTS
Видео: AVC at 4833 Кбит/сек Aspect : 720 x 576 (1.818) at 25.000 fps
Аудио#1: AC-3 at 448 Кбит/сек Infos : 6 каналов, 48,0 КГц Language ( rus)
Аудио#2: AC-3 at 448 Кбит/сек Infos : 6 каналов, 48,0 КГц Language ( rus)авторский одноголосый (Пучков, Дмитрий Юрьевич)
Аудио#3: DTS at 755 Кбит/сек Infos : 6 каналов, 48,0 КГц Language( rus)
Аудио#4: AC-3 at 448 Кбит/сек Infos : 6 каналов, 48,0 КГц Language ( eng)

Общее
Уникальный идентификатор : 235131586258048071157798908554397396920 (0xB0E4B23FB4894492A8C2671BD794AFB8)
Полное имя : D:ФильмыКОМЕДИИPostal.DVDRip-AVC(2007).mkv
Формат : Matroska
Размер файла : 4,81 Гбайт
Продолжительность : 1 ч. 40 м.
Общий поток : 6851 Кбит/сек
Дата кодирования : UTC 2012-12-29 18:21:13
Программа кодирования : mkvmerge v5.0.1 ('Es ist Sommer') built on Oct 30 2011 21:53:49
Библиотека кодирования : libebml v1.2.2 + libmatroska v1.3.0

Видео
Идентификатор : 1
Формат : AVC
Формат/Информация : Advanced Video Codec
Профиль формата : High@L4.1
Параметр CABAC формата : Да
Параметр ReFrames формата : 4 кадра
Режим смешивания : Header stripping
Идентификатор кодека : V_MPEG4/ISO/AVC
Продолжительность : 1 ч. 40 м.
Битрейт : 4833 Кбит/сек
Ширина : 720 пикс.
Высота : 576 пикс.
Соотношение сторон : 16:9
Частота кадров : 25,000 кадр/сек
Стандарт вещания : PAL
Цветовое пространство : YUV
Подвыборка цветности : 4:2:0
Битовая глубина : 8 бит
Тип развёртки : Прогрессивная
Бит/(Пиксели*Кадры) : 0.466
Размер потока : 3,24 Гбайт (67%)
Библиотека кодирования : x264 core 125 r2200bm 999b753
Настройки программы : cabac=1 / ref=3 / deblock=1:-2:-2 / analyse=0x3:0x113 / me=hex / subme=7 / psy=1 / psy_rd=1.00:0.25 / mixed_ref=1 / me_range=16 / chroma_me=1 / trellis=1 / 8x8dct=1 / cqm=0 / deadzone=6,6 / fast_pskip=1 / chroma_qp_offset=-4 / threads=12 / lookahead_threads=2 / sliced_threads=0 / nr=0 / decimate=0 / interlaced=0 / bluray_compat=0 / constrained_intra=0 / bframes=3 / b_pyramid=2 / b_adapt=1 / b_bias=0 / direct=1 / weightb=1 / open_gop=0 / weightp=2 / keyint=250 / keyint_min=25 / scenecut=40 / intra_refresh=0 / rc_lookahead=40 / rc=abr / mbtree=1 / bitrate=4833 / ratetol=1.0 / qcomp=0.80 / qpmin=0 / qpmax=69 / qpstep=4 / ip_ratio=1.10 / aq=1:0.50

Аудио #1
Идентификатор : 2
Формат : AC-3
Формат/Информация : Audio Coding 3
Расширение режима : CM (complete main)
Режим смешивания : Header stripping
Идентификатор кодека : A_AC3
Продолжительность : 1 ч. 40 м.
Вид битрейта : Постоянный
Битрейт : 448 Кбит/сек
Каналы : 6 каналов
Расположение каналов : Front: L C R, Side: L R, LFE
Частота : 48,0 КГц
Битовая глубина : 16 бит
Метод сжатия : С потерями
Задержка видео : 2 с. 0 мс.
Размер потока : 322 Мбайт (7%)
Язык : Russian

Аудио #2
Идентификатор : 3
Формат : AC-3
Формат/Информация : Audio Coding 3
Расширение режима : CM (complete main)
Режим смешивания : Header stripping
Идентификатор кодека : A_AC3
Продолжительность : 1 ч. 40 м.
Вид битрейта : Постоянный
Битрейт : 448 Кбит/сек
Каналы : 6 каналов
Расположение каналов : Front: L C R, Side: L R, LFE
Частота : 48,0 КГц
Битовая глубина : 16 бит
Метод сжатия : С потерями
Задержка видео : 2 с. 0 мс.
Размер потока : 322 Мбайт (7%)
Язык : Russian

Аудио #3
Идентификатор : 4
Формат : DTS
Формат/Информация : Digital Theater Systems
Режим смешивания : Header stripping
Идентификатор кодека : A_DTS
Продолжительность : 1 ч. 40 м.
Вид битрейта : Постоянный
Битрейт : 755 Кбит/сек
Каналы : 6 каналов
Расположение каналов : Front: L C R, Side: L R, LFE
Частота : 48,0 КГц
Битовая глубина : 24 бит
Метод сжатия : С потерями
Задержка видео : 2 с. 0 мс.
Размер потока : 542 Мбайт (11%)
Язык : Russian

Аудио #4
Идентификатор : 5
Формат : AC-3
Формат/Информация : Audio Coding 3
Расширение режима : CM (complete main)
Режим смешивания : Header stripping
Идентификатор кодека : A_AC3
Продолжительность : 1 ч. 40 м.
Вид битрейта : Постоянный
Битрейт : 448 Кбит/сек
Каналы : 6 каналов
Расположение каналов : Front: L C R, Side: L R, LFE
Частота : 48,0 КГц
Битовая глубина : 16 бит
Метод сжатия : С потерями
Задержка видео : 2 с. 0 мс.
Размер потока : 322 Мбайт (7%)
Язык : English

piratbit.org



Скачать Постал через торрент http://pic.kartinco.top/images/1/ohjanq9tyn.png Скачать фильм Постал через торрент бесплантно в хорошем качестве Описание: По мотивам компьютерной трэш-игры Postal. В городе Парадиз строят огромный развлекательный центр, и в один из магазинов завозят ... 10 10 1
Info! Золотая раздача, скачанное не засчитывается.
Торрент: Зарегистрирован [2012-12-29 19:15] · скачан: 67 раз
Статус: √ проверено
Размер: 4.81 GB
Как cкачать? Как скачать Постал через торрент | qTorrent

% Раздел Тема Автор DL S | L
Фильмы с авторской озвучкой [ 748 MB ] Постал / Postal [2007 BDRip-AVC / Гоблин] Ворон Скачать
2 | 0
Фильмы 2006-2008 [ 1.46 GB ] Постал / Postal [2007 HDRip] Devos Скачать
1 | 0
Фильмы 2006-2008 [ 22.04 GB ] Постал / Postal [2007 BDRemux 1080p] Hullu93 Скачать
1 | 0
Фильмы 2006-2008 [ 1.91 GB ] Постал / Postal [2007 BDRip] Leshka37 Скачать
1 | 0

28-11-2019 20:33  

Отключить всю рекламу на сайте

29-12-2012 19:37 Постал Скачать торрент  

Не вижу смысла релиза с таким размером и при небольшом разрешении. Картинка от этого ничем не выигрывает. И вообще зачем было пихать сюда все возможные озвучки?piratbit.org



29-12-2012 19:45 Постал Скачать торрент  

Какой это нафиг Боевик - прост Чёрная Комедия, но смешнаяpiratbit.org



29-12-2012 19:46 Постал Скачать торрент  

Шмель писал(а):

Не вижу смысла релиза с таким размером и при небольшом разрешении. Картинка от этого ничем не выигрывает. И вообще зачем было пихать сюда все возможные озвучки?

все вазможные это какие чем же вам не угодила дтсpiratbit.org



    Дорогой пользователь! Огромная просьба, поблагодарите релизера, оцените раздачу и оставьте свои комментарий, если Вы скачали Постал через торрент бесплатно! Внесите свою лепту в развитие PiratBit!
    Комментировать посты могут только пользователи прошедшие не сложную регистрацию
    Показать сообщения:    

    Постал через торрент
    Скачать бесплатно Постал
    Постал скачать торрент
    Постал смотреть онлайн
    Cкачать фильм Постал бесплатно
    Постал скачать торрент в хорошем качестве
    Постал смотреть онлайн бесплатно в хорошем качестве


    Вы не можете начинать темы
    Вы не можете отвечать на сообщения
    Вы не можете редактировать свои сообщения
    Вы не можете удалять свои сообщения
    Вы не можете голосовать в опросах
    Вы не можете прикреплять файлы к сообщениям
    Вы можете скачивать файлы