1 сезон

1 сезон

iTunes

1

КиноПоиск HD

Кинопоиск HD

iTunes

13

1 сезон

RePack

30

Deluxe

ВАЖНО

ИГРА 18+

pack

RePack

MK11
pack

Легкие деньги

RePack

jed

RePack

fifa19

RePack

RDR2

RePack

NEED FOR SPEED™ PAYBACK

4 сезон

9 сезон

Бесстыжие 9 сезон

Все сериалы

все сериалы на PB.wtf

RePack

FAR CRY 5
  
Magnet ссылка

Шанхайские рыцари / Shanghai Knights (Дэвид Добкин) [2003 г., Боевик, комедия, приключения, вестерн, HDRip, MVO, лицензия] piratbit.org

Шанхайские рыцари через торрент piratbit.org

Размер: 1.46 GB | Добавлен: 8 лет 4 мес. назад | Торрент скачан:458 раз
Скачать  

29-12-2012 20:23 Шанхайские рыцари Скачать торрент  


Шанхайские рыцари / Shanghai Knights
Год выпуска: 2003
Страна: США, Гонконг
Жанр: Боевик, комедия, приключения, вестерн
Продолжительность: 01:52:00
Перевод: Профессиональный многоголосый, Лицензия

Режиссер: Дэвид Добкин

Бюджет: $50 000 000
Премьера в мире: 30 января 2003



В ролях: Джеки Чан, Оуэн Уилсон, Фэнн Вонг, Аарон Джонсон, Эйдан Джиллен, Том Фишер, Донни Ен, Оливер Коттон, Элисон Кинг, Константин Грегори, Джонатан Харви, Ричард Хаас

Описание: После приручения Дикого Запада в комедии «Шанхайский полдень», Чон Ванг и Рой О'Баннон - опять в седле, но на сей раз совсем в другом месте - они оказались в цивилизованном Лондоне в продолжении этого фильма, «Шанхайских Рыцарях».
Когда китайский предатель убивает отца Чона и убегает в Англию, Чон и Рой отправляются за ним в Лондон с планами мести. Сестра Чона, Лин, хочет того же, и раскрывает всемирный заговор против королевской семьи, но почти никто не верит ей.
С помощью любезного инспектора Скотланд Ярда и 10-летнего уличного мальчишки, акробатический Чон дает Викторианской Англии хороший пинок, поскольку он одновременно пытается мстить за смерть своего отца и держать склонного к флирту Роя подальше от сестры.

Качество: HDRip [BDRip 1080p]
Формат: AVI
Видео кодек: XviD
Аудио кодек: AC3
Видео: 720x304 (2.37:1), 23.976 fps, XviD build 64 ~1469 kbps avg, 0.28 bit/pixel
Аудио: 48 kHz, AC3 Dolby Digital, 3/2 (L,C,R,l,r) + LFE ch, ~384 kbps


Автор рипа: Dean24
скриншот  скриншот  
скриншот  скриншот  
скриншот  скриншот  





Общее:
Полное имя: D:Для сайтаRip'sshanhaiskie_ricari_HDRip.avi
Формат: AVI
Формат/Информация: Audio Video Interleave
Размер файла: 1,46 Гбайт
Продолжительность: 1 ч. 52 м.
Общий поток : 1863 Кбит/сек
Программа кодирования: VirtualDubMod 1.5.10.3 (build 2550/release)
Библиотека кодирования: VirtualDubMod build 2550/release

Видео:
Идентификатор: 0
Формат: MPEG-4 Visual
Профиль формата: Advanced Simple@L5
Параметр BVOP формата: 2
Параметр QPel формата: Нет
Параметр GMC формата: Без точки перехода
Параметр матрицы формата: Default (H.263)
Идентификатор кодека: XVID
Идентификатор кодека/Подсказка: XviD
Продолжительность: 1 ч. 52 м.
Битрейт: 1470 Кбит/сек
Ширина: 720 пикс.
Высота: 304 пикс.
Соотношение сторон: 2,35:1
Частота кадров: 23,976 кадр/сек
Цветовое пространство: YUV
Подвыборка цветности: 4:2:0
Битовая глубина: 8 бит
Тип развёртки: Прогрессивная
Метод сжатия: С потерями
Бит/(Пиксели*Кадры): 0.280
Размер потока: 1,15 Гбайт (79%)
Библиотека кодирования: XviD 64

Аудио:
Идентификатор: 1
Формат: AC-3
Формат/Информация: Audio Coding 3
Расширение режима: CM (complete main)
Идентификатор кодека: 2000
Продолжительность: 1 ч. 52 м.
Вид битрейта: Постоянный
Битрейт: 384 Кбит/сек
Каналы: 6 каналов
Расположение каналов: Front: L C R, Side: L R, LFE
Частота: 48,0 КГц
Битовая глубина: 16 бит
Метод сжатия: С потерями
Размер потока: 308 Мбайт (21%)
Выравнивание: Разделение по промежуткам
Продолжительность промежутка: 42 мс. (1,00 видеокадр)
Время предзагрузки промежутка: 500 ms

piratbit.org



Скачать Шанхайские рыцари через торрент http://i53.fastpic.ru/big/2012/1229/13/4454f05b8b969bd5dd4c4582c80f7013.jpg Скачать фильм Шанхайские рыцари через торрент бесплантно в хорошем качестве Описание: После приручения Дикого Запада в комедии «Шанхайский полдень», Чон Ванг и Рой О'Баннон - опять в седле, но на сей раз совсем в ... 10 10 5
Info! Золотая раздача, скачанное не засчитывается.
Торрент: Зарегистрирован [2012-12-29 20:23] · скачан: 458 раз
Статус: √ проверено
Размер: 1.46 GB
Как cкачать? Как скачать Шанхайские рыцари через торрент | UTorrent

% Раздел Тема Автор DL S | L
Фильмы (HD 720p, 1080p) (48-60 fps) [ 4.36 GB ] Шанхайские рыцари / Shanghai Knights [2003 BDRip 720p / 60 FPS ] от R.G. HD-Films slaventi-69 Скачать
2 | 0
Фильмы с авторской озвучкой [ 1.46 GB ] Шанхайские рыцари / Shanghai Knights [2003 BDRip Авторский / Гаврилов Ворон Скачать
1 | 0
Фильмы 2001-2005 [ 745 MB ] Шанхайские рыцари / Shanghai Knights [2003 Гонконг HDRip-AVC] MVO + Subs dexter lex Скачать
1 | 0
Фильмы (Blu-ray, BD-Remux, HDDVD) [ 40.92 GB ] Шанхайский полдень / Shanghai Noon + Шанхайские рыцари / Shanghai Knights [2000 2003 BD-Remux многоголосый] Артронах Скачать
1 | 0
Фильмы 2001-2005 [ 2.18 GB ] Шанхайские рыцари / Shanghai Knights [2003 BDRip + Проф. многоголосый] denis1993 Скачать
1 | 0


Последний раз редактировалось: Dean24 (2012-12-29 20:36), всего редактировалось 2 раз(а)

28-11-2019 20:33  

Отключить всю рекламу на сайте

29-12-2012 20:28 Шанхайские рыцари Скачать торрент  

29-12-2012 20:31 Шанхайские рыцари Скачать торрент  

Укажи Пункт перевода.piratbit.org



29-12-2012 20:31 Шанхайские рыцари Скачать торрент  

Шмель
Уже)
Что то я проморгал при оформлении по шаблону...piratbit.org



    Дорогой пользователь! Огромная просьба, поблагодарите релизера, оцените раздачу и оставьте свои комментарий, если Вы скачали Шанхайские рыцари через торрент бесплатно! Внесите свою лепту в развитие PiratBit!
    Комментировать посты могут только пользователи прошедшие не сложную регистрацию
    Показать сообщения:    

    Шанхайские рыцари через торрент
    Скачать бесплатно Шанхайские рыцари
    Шанхайские рыцари скачать торрент
    Шанхайские рыцари смотреть онлайн
    Cкачать фильм Шанхайские рыцари бесплатно
    Шанхайские рыцари скачать торрент в хорошем качестве
    Шанхайские рыцари смотреть онлайн бесплатно в хорошем качестве


    Вы не можете начинать темы
    Вы не можете отвечать на сообщения
    Вы не можете редактировать свои сообщения
    Вы не можете удалять свои сообщения
    Вы не можете голосовать в опросах
    Вы не можете прикреплять файлы к сообщениям
    Вы можете скачивать файлы