Ссылка на приватное зеркало нашего сайта всего за 1$. Внимание количество ограничено!!!

2 сезон

iTunes

iTunes

1

iTunes

iTunes

iTunes

WEBRip

iTunes

30
pack

Вам бонус

ВАЖНО

!!Акция!!

Alien_RageХит недели

RePack

Horizon Zero Dawn

ИГРА 18+

pack

RePack

jed

!!Акция!!

Alien_Rage

RePack

fifa19

RePack

Assassins Creed: Odyssey

RePack

NEED FOR SPEED™ PAYBACK

4 сезон

9 сезон

Бесстыжие 9 сезон

Все сериалы

все сериалы на PB.wtf

RePack

FAR CRY 5
  

Казино Рояль / Casino Royale (Мартин Кэмпбелл) [2006 г., боевик, триллер, криминал, HDRip, DUB, лицензия] piratbit.org

Казино Рояль через торрент piratbit.org

Размер: 1.46 GB | Добавлен: 7 лет 8 мес. назад | Торрент скачан:366 раз
Скачать  

31-12-2012 19:22 Казино Рояль Скачать торрент  

Казино Рояль / Casino Royale

Год выпуска: 2006
Страна: Великобритания
Жанр: боевик, триллер, криминал
Продолжительность: 02:19:00
Перевод: Дубляж, Лицензия

Режиссер: Мартин Кэмпбелл
Продюссер: Барбара Брокколи, Майкл Дж. Уилсон, Гвидо Черасуоло
Сценарий: Нил Пёрвис, Роберт Уэйд, Пол Хаггис

БЮДЖЕТ: $150 000 000
CБОРЫ В США:$167 445 960
СБОРЫ В РОССИИ:$8 919 873
DVD в США:$80 869 002
СБОРЫ В МИРЕ:$594 239 066
ПРЕМЬЕРА В МИРЕ: 14 ноября 2006

Мировой рейтинг IMDB 7.90 (276 509)


В ролях: Дэниэл Крэйг, Ева Грин, Мадс Миккельсен, Джуди Денч, Джеффри Райт, Джанкарло Джаннини, Катерина Мурино, Симон Абкарян, Исаак Де Банколе, Еспер Кристенсен, Валерий Соловьев, Елена Шульман, Валерий Кухарешин, Мария Кузнецова, Андрей Шамин

Описание: Самый известный шпион в мире возвращается к зрителю — и к началу своей бурной деятельности на службе Ее Величества! Первая же миссия в качестве агента 007 становится его величайшим испытанием: ему выпадает сразиться с международной террористической организацией, опутавшей своей сетью всю планету.Используя богатый шпионский арсенал — от верного пистолета до навороченного спортивного авто — Джеймс Бонд вступает в поединок с ключевой фигурой сил зла, финансовым гением преступного мира Ле Шиффром. Но пули хороши лишь для приспешников Ле Шиффра: генеральное сражение против негодяя можно выиграть лишь силой ума — и не на поле боя, а на зеленом сукне роскошного казино «Рояль»...

Качество: HDRip
Формат: AVI
Видео кодек: XviD
Аудио кодек: AC3
Видео: Xvid, 1248кбрs,720x304(2:35.1) в 23 976fps
Аудио#1: AC-3,192кбрs,48.0 KHz, 16 bits,2 каналов


Полное имя : D:007_22_Kazino_Royal_HDRip_dub_avi
Формат : AVI
Формат/Информация : Audio Video Interleave
Размер файла : 1.46 GiB
Продолжительность : 2h 24mn
Общий поток : 1 449 Kbps
Программа кодирования : VirtualDubMod 1.5.10.2 (build 2540/release)
Библиотека кодирования : VirtualDubMod build 2540/release

Video
Идентификатор : 0
Формат : MPEG-4 Visual
Профиль формата : Advanced Simple@L5
Параметр BVOP формата : 1
Параметр QPel формата : No
Параметр GMC формата : No warppoints
Параметр матрицы формата : Custom
Идентификатор кодека : XVID
Идентификатор кодека/Подсказка : XviD
Продолжительность : 2h 24mn
Битрейт : 1 248 Kbps
Ширина : 720 pixels
Высота : 304 pixels
Соотношение сторон : 2.35:1
Частота кадров : 23.976 fps
Цветовое пространство : YUV
Субдискретизация насыщенности : 4:2:0
Битовая глубина : 8 bits
Тип развёртки : Progressive
Метод сжатия : Lossy
Бит/(Пиксели*Кадры) : 0.238
Размер потока : 1.26 GiB (86%)
Библиотека кодирования : XviD 1.2.1 (UTC 2008-12-04)

Audio
Идентификатор : 1
Формат : AC-3
Формат/Информация : Audio Coding 3
Расширение режима : CM (complete main)
Параметр Endianness формата : Big
Идентификатор кодека : 2000
Продолжительность : 2h 24mn
Вид битрейта : Constant
Битрейт : 192 Kbps
Каналы : 2 channels
Расположение каналов : Front: L R
Частота : 48.0 KHz
Битовая глубина : 16 bits
Метод сжатия : Lossy
Размер потока : 199 MiB (13%)
Выравнивание : Aligned on interleaves
Продолжительность промежутка : 42 ms (1.00 video frame)
Время предзагрузки промежутка : 512 ms


Казино Рояль скачать торрент


piratbit.org



Скачать Казино Рояль через торрент http://pic.kartinco.top/images/1/8frdbrpcxn.jpg Скачать фильм Казино Рояль через торрент бесплантно в хорошем качестве Описание: Самый известный шпион в мире возвращается к зрителю — и к началу своей бурной деятельности на службе Ее Величества! Первая же ... 9.8 10 4
Info! Золотая раздача, скачанное не засчитывается.
Торрент: Зарегистрирован [2012-12-31 19:22] · скачан: 366 раз
Статус: √ проверено
Размер: 1.46 GB
Как cкачать? Как скачать Казино Рояль через торрент | qTorrent

% Раздел Тема Автор DL S | L
Ultra HD (UHD: 2K, 4K, 8K) — видео сверхвысокой чёткости [ 49.45 GB ] Джеймс Бонд 007: Казино Рояль / James Bond 007: Casino Royale [2006 UHD BDRemux 2160p] [Dolby Vision] DUB [] bober100 Скачать
1 | 0
Ultra HD (UHD: 2K, 4K, 8K) — видео сверхвысокой чёткости [ 42.79 GB ] Джеймс Бонд 007: Казино Рояль / James Bond 007: Casino Royale [2006 UHD BDRemux 2160p] [Dolby Vision TV] DUB [] bober100 Скачать
1 | 0
Ultra HD (UHD: 2K, 4K, 8K) — видео сверхвысокой чёткости [ 46.97 GB ] Джеймс Бонд 007: Казино Рояль / James Bond 007: Casino Royale [2006 UHD BDRemux 2160p] DUB [] bober100 Скачать
2 | 0
Фильмы [HD 720p, 1080p] (Хороший звук DUB, MVO) [ 4.79 GB ] Джеймс Бонд 007: Казино Рояль / James Bond 007: Casino Royale [2006 BDRip 720p] diletant Скачать
1 | 0
Фильмы [HD 720p, 1080p] (Хороший звук DUB, MVO) [ 11.52 GB ] 007: Казино Рояль / 007: Casino Royale [2006 BDRip 1080p] DUB от NNNB еnvy Скачать
1 | 0
Фильмы 2006-2008 [ 2.1 GB ] Казино Рояль / Casino Royale [2006 BDRip-AVC DUB ] stalonе Скачать
1 | 0
Фильмы 2006-2008 [ 4.36 GB ] Казино Рояль / Casino Royale [2006 ... HDTV лицензия] chack Скачать
1 | 0

28-11-2019 20:33  

Отключить всю рекламу на сайте

31-12-2012 19:38 Казино Рояль Скачать торрент  

спасыбо большой)) скачаю, класний фильм :good2:piratbit.org



    Дорогой пользователь! Огромная просьба, поблагодарите релизера, оцените раздачу и оставьте свои комментарий, если Вы скачали Казино Рояль через торрент бесплатно! Внесите свою лепту в развитие PiratBit!
    Комментировать посты могут только пользователи прошедшие не сложную регистрацию
    Показать сообщения:    

    Казино Рояль через торрент
    Скачать бесплатно Казино Рояль
    Казино Рояль скачать торрент
    Казино Рояль смотреть онлайн
    Cкачать фильм Казино Рояль бесплатно
    Казино Рояль скачать торрент в хорошем качестве
    Казино Рояль смотреть онлайн бесплатно в хорошем качестве


    Вы не можете начинать темы
    Вы не можете отвечать на сообщения
    Вы не можете редактировать свои сообщения
    Вы не можете удалять свои сообщения
    Вы не можете голосовать в опросах
    Вы не можете прикреплять файлы к сообщениям
    Вы можете скачивать файлы