1 сезон

iTunes

iTunes

1

Line

MVO

iTunes

13

1 сезон

RePack

30

Deluxe

pack

Лицензия

ВАЖНО

ИГРА 18+

pack

RePack

MK11

RePack

jed

RePack

fifa19

RePack

RDR2

RePack

NEED FOR SPEED™ PAYBACK

4 сезон

9 сезон

Бесстыжие 9 сезон

Все сериалы

все сериалы на PB.wtf

RePack

FAR CRY 5

Anonymous, добрый вечер, мы катастрофически не успеваем собрать деньги на оплату серверов, помогите нам пожалуйста 5,10,15р., для нас важна любая помощь . В качестве благодарности мы отключим Вам всю рекламу на сайте (укажите свой ник в строку Ваше имя)!

×
  
Magnet ссылка

Правила секса / The Rules of Attraction (Роджер Эвери) [2002 г., драма, мелодрама, комедия, DVDRip, DUB, лицензия] piratbit.org

Правила секса через торрент piratbit.org

Размер: 1.37 GB | Добавлен: 8 лет 7 мес. назад | Торрент скачан:124 раза
Скачать  

03-01-2013 13:14 Правила секса Скачать торрент  

Правила секса / The Rules of Attraction

Год выпуска: 2002
Страна: США, Германия
Жанр: драма, мелодрама, комедия
Продолжительность: 01:50:43
Перевод: Дубляж, Лицензия

Режиссер: Роджер Эвери
Продюссер: Грег Шапиро, Роджер Эвери, Марк Бутан
Сценарий: Роджер Эвери, Брэт Истон Эллис

Бюджет: $4 000 000
Премьера в мире: 11 октября 2002



В ролях: Джеймс Ван Дер Бик, Шаннин Соссамон, Джессика Бил, Кип Парду, Кейт Босворт, Иен Сомерхолдер, Джоэль Майкли, Джей Барушель, Томас Иэн Николас, Клифтон Коллинз мл.
Роли дублировали: Александр Рахленко, Ольга Голованова, Лариса Некипелова, Андрей Бархударов, Нина Тобилевич

Описание: Резкая и проницательная комедия о жизни и любви молодых и привилегированных. Человеческая природа устанавливает, что в несовершенном мире всегда действуют законы тяготения. А среди студентов Камдена главным законом является: «Никаких правил и законов».

Качество: DVDRip
Формат: AVI
Видео кодек: XviD
Аудио кодек: AC3
Видео: 704x400 (1.76:1), 23.976 fps, XviD build 50 ~1378 kbps avg, 0.20 bit/pixel
Аудио: 48 kHz, AC3 Dolby Digital, 3/2 (L,C,R,l,r) + LFE ch, ~384 kbps
Автор рипа:




Общее
Полное имя : H:Pravila seksa..avi
Формат : AVI
Формат/Информация : Audio Video Interleave
Размер файла : 1,37 Гбайт
Продолжительность : 1 ч. 50 м.
Общий поток : 1772 Кбит/сек
Программа кодирования : VirtualDubMod 1.5.10.3 | www.virtualdub-fr.org || (build 2550/release)
Библиотека кодирования : VirtualDubMod build 2550/release

Видео
Идентификатор : 0
Формат : MPEG-4 Visual
Профиль формата : Advanced Simple@L5
Параметр BVOP формата : 2
Параметр QPel формата : Нет
Параметр GMC формата : Без точки перехода
Параметр матрицы формата : Default (MPEG)
Идентификатор кодека : DX50
Идентификатор кодека/Подсказка : DivX 5
Продолжительность : 1 ч. 50 м.
Битрейт : 1379 Кбит/сек
Ширина : 704 пикселя
Высота : 400 пикселей
Соотношение сторон : 16:9
Частота кадров : 23,976 кадра/сек
Цветовое пространство : YUV
Субдискретизация насыщенности : 4:2:0
Битовая глубина : 8 бит
Тип развёртки : Прогрессивная
Метод сжатия : С потерями
Бит/(Пиксели*Кадры) : 0.204
Размер потока : 1,07 Гбайт (78%)
Библиотека кодирования : XviD 1.2.1 (UTC 2008-12-04)

Аудио
Идентификатор : 1
Формат : AC-3
Формат/Информация : Audio Coding 3
Расширение режима : CM (complete main)
Параметр Endianness формата : Big
Идентификатор кодека : 2000
Продолжительность : 1 ч. 50 м.
Вид битрейта : Постоянный
Битрейт : 384 Кбит/сек
Каналы : 6 каналов
Расположение каналов : Front: L C R, Side: L R, LFE
Частота : 48,0 КГц
Битовая глубина : 16 бит
Метод сжатия : С потерями
Размер потока : 304 Мбайт (22%)
Выравнивание : Разделение по промежуткам
Продолжительность промежутка : 42 мс. (1,00 видеокадр)
Время предзагрузки промежутка : 500 мс.


Правила секса скачать торрент


piratbit.org



Скачать Правила секса через торрент https://pic1.kartinco.top/images/111/h2cewb7mhs.png Скачать фильм Правила секса через торрент бесплантно в хорошем качестве Описание: Резкая и проницательная комедия о жизни и любви молодых и привилегированных. Человеческая природа устанавливает, что в ... 10 10 1
Info! Золотая раздача, скачанное не засчитывается.
Торрент: Зарегистрирован [2013-01-03 13:14] · скачан: 124 раз
Статус: √ проверено
Размер: 1.37 GB
Как cкачать? Как скачать Правила секса через торрент | UTorrent

% Раздел Тема Автор DL S | L
Фильмы 2001-2005 [ 1.46 GB ] Правила секса / The Rules of Attraction [2002 BDRip] m9sо Скачать
1 | 0

28-11-2019 20:33  

Отключить всю рекламу на сайте

    Дорогой пользователь! Огромная просьба, поблагодарите релизера, оцените раздачу и оставьте свои комментарий, если Вы скачали Правила секса через торрент бесплатно! Внесите свою лепту в развитие PiratBit!
    Комментировать посты могут только пользователи прошедшие не сложную регистрацию
    Показать сообщения:    

    Правила секса через торрент
    Скачать бесплатно Правила секса
    Правила секса скачать торрент
    Правила секса смотреть онлайн
    Cкачать фильм Правила секса бесплатно
    Правила секса скачать торрент в хорошем качестве
    Правила секса смотреть онлайн бесплатно в хорошем качестве


    Вы не можете начинать темы
    Вы не можете отвечать на сообщения
    Вы не можете редактировать свои сообщения
    Вы не можете удалять свои сообщения
    Вы не можете голосовать в опросах
    Вы не можете прикреплять файлы к сообщениям
    Вы можете скачивать файлы