Marvel's Avengers Deluxe Edition (супер цена) 159р. Внимание количество ограничено!!!

2 сезон

iTunes

iTunes

1

iTunes

iTunes

iTunes

WEBRip

iTunes

30
pack

Новость дня

ВАЖНО

!!Акция!!

Alien_RageХит недели

RePack

Horizon Zero Dawn

ИГРА 18+

pack

RePack

jed

!!Акция!!

Alien_Rage

RePack

fifa19

RePack

Assassins Creed: Odyssey

RePack

NEED FOR SPEED™ PAYBACK

4 сезон

9 сезон

Бесстыжие 9 сезон

Все сериалы

все сериалы на PB.wtf

RePack

FAR CRY 5
  

Преодоление / Invincible (Эриксон Кор) [2006 г., драма, биография, спорт, HDRip, Профессиональный + Оригинал] piratbit.org

Преодоление через торрент piratbit.org

Размер: 2.05 GB | Добавлен: 7 лет 8 мес. назад | Торрент скачан:85 раз
Скачать  

03-01-2013 16:31 Преодоление Скачать торрент  

Преодоление / Invincible

Год выпуска: 2006
Страна: США
Жанр: драма, биография, спорт
Продолжительность: 01:43:59
Перевод: Профессиональный многоголосый + Оригинал

Режиссер: Эриксон Кор
Продюссер: Марк Кьярди, Гордон Грэй, Кен Мок
Сценарий: Брэд Гэнн

Премьера в мире: 25 августа 2006



В ролях: Марк Уолберг, Грег Киннер, Элизабет Бэнкс, Кевин Конуэй, Майкл Рисполи, Кирк Асеведо, Дов Давидофф, Майкл Келли, Сэл Дариго, Никойе Бэнкс

Описание: Потеряв жену и работу преподавателя, 30-летний бармен Винс Папале решает воплотить в жизнь свою давнюю мечту. Ему предоставляется шанс принять участие в конкурсе, устроенном тренером профессиональной команды по американскому футболу «Philadelphia Eagles» Диком Вермейлом, который пригласил всех желающих попробоваться на место одного из игроков. В итоге происходит чудо, и Папале, не игравший до этого даже в студенческой команде, становится профессиональным спортсменом...

Доп. информация:
Премия канала «MTV», 2007 год
Номинации (1):
Лучший поцелуй (Марк Уолберг, Элизабет Бэнкс)




Качество: HDRip
Формат: AVI
Видео кодек: XviD
Аудио кодек: AC-3
Видео: MPEG4, XviD, 720x304 (2.35:1), 23.976 fps, 2 045 Kbps (0.390 bit/pixel)
Аудио#1: AC-3, 48.0 KHz, 6 ch, 384 Kbps, CBR (Russian)
Аудио#2: AC-3, 48.0 KHz, 6 ch, 384 Kbps, CBR (English)
Формат : AVI
Формат/Информация : Audio Video Interleave
Профиль формата : OpenDML
Размер файла : 2,05 Гбайт
Продолжительность : 1 ч. 43 м.
Общий поток : 2825 Кбит/сек
Название фильма : Preodolenie
Программа кодирования : VirtualDubMod 1.5.10.3 (build 2550/release)
Формат оригинала/Имя : Movie
Примечание : Rip от кэп

Видео
Идентификатор : 0
Формат : MPEG-4 Visual
Профиль формата : Advanced Simple@L5
Параметр BVOP формата : 1
Параметр QPel формата : Нет
Параметр GMC формата : Без точки перехода
Параметр матрицы формата : Default (MPEG)
Идентификатор кодека : XVID
Идентификатор кодека/Подсказка : XviD
Продолжительность : 1 ч. 43 м.
Битрейт : 2045 Кбит/сек
Ширина : 720 пикселей
Высота : 304 пикселя
Соотношение сторон : 2,35:1
Частота кадров : 23,976 кадра/сек
Цветовое пространство : YUV
Субдискретизация насыщенности : 4:2:0
Битовая глубина : 8 бит
Тип развёртки : Прогрессивная
Метод сжатия : С потерями
Бит/(Пиксели*Кадры) : 0.390
Размер потока : 1,49 Гбайт (72%)
Библиотека кодирования : XviD 64

Аудио #1
Идентификатор : 1
Формат : AC-3
Формат/Информация : Audio Coding 3
Расширение режима : CM (complete main)
Параметр Endianness формата : Big
Идентификатор кодека : 2000
Продолжительность : 1 ч. 43 м.
Вид битрейта : Постоянный
Битрейт : 384 Кбит/сек
Каналы : 6 каналов
Расположение каналов : Front: L C R, Side: L R, LFE
Частота : 48,0 КГц
Битовая глубина : 16 бит
Метод сжатия : С потерями
Размер потока : 286 Мбайт (14%)
Выравнивание : Разделение по промежуткам
Продолжительность промежутка : 80 мс. (1,92 видеокадра)
Время предзагрузки промежутка : 560 мс.

Аудио #2
Идентификатор : 2
Формат : AC-3
Формат/Информация : Audio Coding 3
Расширение режима : CM (complete main)
Параметр Endianness формата : Big
Идентификатор кодека : 2000
Продолжительность : 1 ч. 43 м.
Вид битрейта : Постоянный
Битрейт : 384 Кбит/сек
Каналы : 6 каналов
Расположение каналов : Front: L C R, Side: L R, LFE
Частота : 48,0 КГц
Битовая глубина : 16 бит
Метод сжатия : С потерями
Размер потока : 286 Мбайт (14%)
Выравнивание : Разделение по промежуткам
Продолжительность промежутка : 80 мс. (1,92 видеокадра)
Время предзагрузки промежутка : 560 мс.
Сэмпл / Трейлерскриншот   скриншот   скриншот   скриншот   скриншот   скриншот   piratbit.org



Скачать Преодоление через торрент http://i5.imageban.ru/out/2013/01/03/fdcd04cba587a3c664c25f414cc68f73.png Скачать фильм Преодоление через торрент бесплантно в хорошем качестве Описание: Потеряв жену и работу преподавателя, 30-летний бармен Винс Папале решает воплотить в жизнь свою давнюю мечту. Ему предоставляется ... 9.6 10 5
Info! Золотая раздача, скачанное не засчитывается.
Торрент: Зарегистрирован [2013-01-03 16:31] · скачан: 85 раз
Статус: √ проверено
Размер: 2.05 GB
Как cкачать? Как скачать Преодоление через торрент | qTorrent

% Раздел Тема Автор DL S | L
Фильмы [HD 720p, 1080p] (Хороший звук DUB, MVO) [ 5.07 GB ] Преодоление / Invincible [2006 биография BDRip ] SibFrost Скачать
1 | 0

28-11-2019 20:33  

Отключить всю рекламу на сайте

    Дорогой пользователь! Огромная просьба, поблагодарите релизера, оцените раздачу и оставьте свои комментарий, если Вы скачали Преодоление через торрент бесплатно! Внесите свою лепту в развитие PiratBit!
    Комментировать посты могут только пользователи прошедшие не сложную регистрацию
    Показать сообщения:    

    Преодоление через торрент
    Скачать бесплатно Преодоление
    Преодоление скачать торрент
    Преодоление смотреть онлайн
    Cкачать фильм Преодоление бесплатно
    Преодоление скачать торрент в хорошем качестве
    Преодоление смотреть онлайн бесплатно в хорошем качестве


    Вы не можете начинать темы
    Вы не можете отвечать на сообщения
    Вы не можете редактировать свои сообщения
    Вы не можете удалять свои сообщения
    Вы не можете голосовать в опросах
    Вы не можете прикреплять файлы к сообщениям
    Вы можете скачивать файлы