Ссылка на приватное зеркало нашего сайта всего за 1$. Внимание количество ограничено!!!

2 сезон

iTunes

iTunes

1

iTunes

iTunes

iTunes

WEBRip

iTunes

30
pack

Вам бонус

ВАЖНО

!!Акция!!

Alien_RageХит недели

RePack

Horizon Zero Dawn

ИГРА 18+

pack

RePack

jed

!!Акция!!

Alien_Rage

RePack

fifa19

RePack

Assassins Creed: Odyssey

RePack

NEED FOR SPEED™ PAYBACK

4 сезон

9 сезон

Бесстыжие 9 сезон

Все сериалы

все сериалы на PB.wtf

RePack

FAR CRY 5
  

Снежный человек / Strange Wilderness (Фред Вульф) [2008 г., Комедия, HDRip, DUB + Оригинал] piratbit.org

Снежный человек через торрент piratbit.org

Размер: 1.45 GB | Добавлен: 7 лет 8 мес. назад | Торрент скачан:221 раз
Скачать  

07-01-2013 16:22 Снежный человек Скачать торрент  

Снежный человек / Strange Wilderness
«Скандал в мире животных!»

Год выпуска: 2008
Страна: США
Жанр: Комедия
Продолжительность: 01:24:56
Перевод: Дубляж + Оригинал

Режиссер: Фред Вульф
Продюссер: Питер Галк, Гленн С. Гейнор, Джек Джиррапуто
Сценарий: Питер Галк, Фред Вульф

Бюджет: $15 000 000
Премьера в мире: 1 февраля 2008

В ролях: Стив Зан, Аллен Коверт, Йон Хилл, Кевин Хеффернан, Эшли Скотт, Питер Данте, Гарри Хэмлин, Роберт Патрик, Джо Дон Бэйкер, Блейк Кларк

Описание: С целью поднять рейтинг телешоу «Странная дикая природа», два чудаковатых энтузиаста отправляются в горный район Южной Америки на поиски снежного человека.

Качество: HDRip
Формат: AVI
Видео кодек: XviD
Аудио кодек: AC3
Видео: 720х304, 23,976 fps, 1656 kbps, 0.316 bit/pixel
Аудио#1: 48 kHz, AC3 5.1, 384.00 kbps / Дубляж
Аудио#2: 48 kHz, AC3 5.1, 384.00 kbps / Оригинал (Английский)
&
Общее
Полное имя : E:Фильмы МStrange Wilderness.2008.HDRip.avi
Формат : AVI
Формат/Информация : Audio Video Interleave
Размер файла : 1,45 Гбайт
Продолжительность : 1 ч. 24 м.
Общий поток : 2437 Кбит/сек
Программа кодирования : VirtualDubModRus 1.5.10.2 (build 2542/release)
Библиотека кодирования : VirtualDubMod build 2542/release

Видео
Идентификатор : 0
Формат : MPEG-4 Visual
Профиль формата : Advanced Simple@L5
Параметр BVOP формата : 1
Параметр QPel формата : Нет
Параметр GMC формата : Без точки перехода
Параметр матрицы формата : Выборочная
Режим смешивания : Сжатый битовый поток
Идентификатор кодека : XVID
Идентификатор кодека/Подсказка : XviD
Продолжительность : 1 ч. 24 м.
Битрейт : 1656 Кбит/сек
Ширина : 720 пикселей
Высота : 304 пикселя
Соотношение сторон : 2,35:1
Частота кадров : 23,976 кадра/сек
Цветовое пространство : YUV
Субдискретизация насыщенности : 4:2:0
Битовая глубина : 8 бит
Тип развёртки : Прогрессивная
Метод сжатия : С потерями
Бит/(Пиксели*Кадры) : 0.316
Размер потока : 1006 Мбайт (68%)
Библиотека кодирования : XviD 65

Аудио #1
Идентификатор : 1
Формат : AC-3
Формат/Информация : Audio Coding 3
Расширение режима : CM (complete main)
Параметр Endianness формата : Big
Идентификатор кодека : 2000
Продолжительность : 1 ч. 24 м.
Вид битрейта : Постоянный
Битрейт : 384 Кбит/сек
Каналы : 6 каналов
Расположение каналов : Front: L C R, Side: L R, LFE
Частота : 48,0 КГц
Битовая глубина : 16 бит
Метод сжатия : С потерями
Размер потока : 233 Мбайт (16%)
Выравнивание : Разделение по промежуткам
Продолжительность промежутка : 42 мс. (1,00 видеокадр)
Время предзагрузки промежутка : 500 мс.
Заголовок : Дубляж

Аудио #2
Идентификатор : 2
Формат : AC-3
Формат/Информация : Audio Coding 3
Расширение режима : CM (complete main)
Параметр Endianness формата : Big
Идентификатор кодека : 2000
Продолжительность : 1 ч. 24 м.
Вид битрейта : Постоянный
Битрейт : 384 Кбит/сек
Каналы : 6 каналов
Расположение каналов : Front: L C R, Side: L R, LFE
Частота : 48,0 КГц
Битовая глубина : 16 бит
Метод сжатия : С потерями
Размер потока : 233 Мбайт (16%)
Выравнивание : Разделение по промежуткам
Продолжительность промежутка : 42 мс. (1,00 видеокадр)
Время предзагрузки промежутка : 500 мс.
Заголовок : Оригинал (Английский)


Снежный человек скачать торрент


piratbit.org



Скачать Снежный человек через торрент http://i52.fastpic.ru/big/2013/0107/bc/3c227c69bbbbd3422f7c23715e8d9bbc.jpg Скачать фильм Снежный человек через торрент бесплантно в хорошем качестве Описание: С целью поднять рейтинг телешоу «Странная дикая природа», два чудаковатых энтузиаста отправляются в горный район Южной Америки на ... 10 10 1
Info! Золотая раздача, скачанное не засчитывается.
Торрент: Зарегистрирован [2013-01-07 16:22] · скачан: 221 раз
Статус: √ проверено
Размер: 1.45 GB
Как cкачать? Как скачать Снежный человек через торрент | qTorrent

% Раздел Тема Автор DL S | L
Фильмы [HD 720p, 1080p] (Хороший звук DUB, MVO) [ 8.75 GB ] Снежный человек / Strange Wilderness [2008 BDRip 1080p DUB лицензия] Pavlin Скачать
1 | 0
Фильмы 2006-2008 [ 1.46 GB ] Снежный человек / Strange Wilderness [2008 BDRip] Anonymous Скачать
1 | 0

28-11-2019 20:33  

Отключить всю рекламу на сайте

    Дорогой пользователь! Огромная просьба, поблагодарите релизера, оцените раздачу и оставьте свои комментарий, если Вы скачали Снежный человек через торрент бесплатно! Внесите свою лепту в развитие PiratBit!
    Комментировать посты могут только пользователи прошедшие не сложную регистрацию
    Показать сообщения:    

    Снежный человек через торрент
    Скачать бесплатно Снежный человек
    Снежный человек скачать торрент
    Снежный человек смотреть онлайн
    Cкачать фильм Снежный человек бесплатно
    Снежный человек скачать торрент в хорошем качестве
    Снежный человек смотреть онлайн бесплатно в хорошем качестве


    Вы не можете начинать темы
    Вы не можете отвечать на сообщения
    Вы не можете редактировать свои сообщения
    Вы не можете удалять свои сообщения
    Вы не можете голосовать в опросах
    Вы не можете прикреплять файлы к сообщениям
    Вы можете скачивать файлы