Ссылка на приватное зеркало нашего сайта всего за 1$. Внимание количество ограничено!!!

2 сезон

iTunes

iTunes

1

iTunes

iTunes

iTunes

WEBRip

iTunes

30
pack

Вам бонус

ВАЖНО

!!Акция!!

Alien_RageХит недели

RePack

Horizon Zero Dawn

ИГРА 18+

pack

RePack

jed

!!Акция!!

Alien_Rage

RePack

fifa19

RePack

Assassins Creed: Odyssey

RePack

NEED FOR SPEED™ PAYBACK

4 сезон

9 сезон

Бесстыжие 9 сезон

Все сериалы

все сериалы на PB.wtf

RePack

FAR CRY 5
  

Невидимый мир / The World Unseen (Шамим Шариф) [2007 г., драма, WEB-DLRip, MVO |BaibaKo|] piratbit.org

Невидимый мир через торрент piratbit.org

Размер: 1.37 GB | Добавлен: 7 лет 8 мес. назад | Торрент скачан:17 раз
Скачать  

09-01-2013 13:36 Невидимый мир Скачать торрент  

Невидимый мир / The World Unseen

Год выпуска: 2007
Страна: ЮАР, Великобритания
Жанр: драма
Продолжительность: 01:34:05
Перевод: Профессиональный многоголосый |BaibaKo|

Режиссер: Шамим Шариф
Продюссер: Ханан Кэттэн, Дэйзи Олсоп, Асим Баджадж
Сценарий: Шамим Шариф

Премьера в мире: 9 сентября 2007



В ролях: Лиза Рэй, Шитал Шет, Парвин Дабас, Нандана Сен, Дэвид Дэннис, Грета Фокс, Колин Мосс, Натали Бекер, Rajesh Gopie, Бернард Уайт

Описание: Фильм о любви двух южноафриканок во времена Апартеида (1950-е годы). Это повествование о любви двух женщин, живущих в очень традиционной атмосфере, а окружающие их люди существуют в четко структурированном и подверженном культурным стереотипам мире.

Качество: WEB-DLRip
Формат: MP4
Видео кодек: AVC
Аудио кодек: AAC LC
Видео: AVC, 720x388 (1.856), 24.000 fps, 1 726 Kbps (0.257 bit/pixel)
Аудио#1: AAC LC, 48.0 KHz, 2 ch, 192 Kbps, VBR (Russian)
Аудио#2: AAC LC, 48.0 KHz, 2 ch, 192 Kbps, VBR (English)
Формат : MPEG-4
Профиль формата : Base Media
Идентификатор кодека : isom
Размер файла : 1,37 Гбайт
Продолжительность : 1 ч. 33 м.
Режим общего битрейта : Переменный
Общий поток : 2112 Кбит/сек
Дата кодирования : UTC 2012-12-03 04:17:38
Дата пометки : UTC 2012-12-03 04:17:38

Видео
Идентификатор : 1
Формат : AVC
Формат/Информация : Advanced Video Codec
Профиль формата : Baseline@L3.0
Параметр CABAC формата : Нет
Параметр ReFrames формата : 3 кадра
Идентификатор кодека : avc1
Идентификатор кодека/Информация : Advanced Video Coding
Продолжительность : 1 ч. 33 м.
Вид битрейта : Переменный
Битрейт : 1726 Кбит/сек
Максимальный битрейт : 10000 Кбит/сек
Ширина : 720 пикселей
Высота : 388 пикселей
Соотношение сторон : 1,85:1
Режим частоты кадров : Постоянный
Частота кадров : 24,000 кадра/сек
Цветовое пространство : YUV
Субдискретизация насыщенности : 4:2:0
Битовая глубина : 8 бит
Тип развёртки : Прогрессивная
Бит/(Пиксели*Кадры) : 0.257
Размер потока : 1,12 Гбайт (82%)
Заголовок : The World Unseen HD720p WEB-DL Rus Eng BaibaKo tv
Библиотека кодирования : x264 core 125 r2208 d9d2288
Настройки программы : cabac=0 / ref=3 / deblock=1:0:0 / analyse=0x1:0x111 / me=hex / subme=7 / psy=1 / psy_rd=1.00:0.00 / mixed_ref=1 / me_range=16 / chroma_me=1 / trellis=1 / 8x8dct=0 / cqm=0 / deadzone=21,11 / fast_pskip=1 / chroma_qp_offset=-2 / threads=6 / lookahead_threads=1 / sliced_threads=0 / nr=0 / decimate=1 / interlaced=0 / bluray_compat=0 / constrained_intra=0 / bframes=0 / weightp=0 / keyint=240 / keyint_min=24 / scenecut=40 / intra_refresh=0 / rc_lookahead=40 / rc=2pass / mbtree=1 / bitrate=1726 / ratetol=1.0 / qcomp=0.60 / qpmin=0 / qpmax=69 / qpstep=4 / cplxblur=20.0 / qblur=0.5 / vbv_maxrate=10000 / vbv_bufsize=10000 / nal_hrd=vbr / ip_ratio=1.40 / aq=1:1.00
Дата кодирования : UTC 2012-12-03 04:06:07
Дата пометки : UTC 2012-12-03 04:19:29

Аудио #1
Идентификатор : 2
Формат : AAC
Формат/Информация : Advanced Audio Codec
Профиль формата : LC
Идентификатор кодека : 40
Продолжительность : 1 ч. 33 м.
Вид битрейта : Переменный
Битрейт : 192 Кбит/сек
Максимальный битрейт : 201 Кбит/сек
Каналы : 2 канала
Расположение каналов : Front: L R
Частота : 48,0 КГц
Метод сжатия : С потерями
Размер потока : 128 Мбайт (9%)
Язык : Russian
Дата кодирования : UTC 2012-12-03 04:19:00
Дата пометки : UTC 2012-12-03 04:19:29

Аудио #2
Идентификатор : 3
Формат : AAC
Формат/Информация : Advanced Audio Codec
Профиль формата : LC
Идентификатор кодека : 40
Продолжительность : 1 ч. 33 м.
Вид битрейта : Переменный
Битрейт : 192 Кбит/сек
Максимальный битрейт : 198 Кбит/сек
Каналы : 2 канала
Расположение каналов : Front: L R
Частота : 48,0 КГц
Метод сжатия : С потерями
Размер потока : 128 Мбайт (9%)
Язык : English
Дата кодирования : UTC 2012-12-03 04:19:23
Дата пометки : UTC 2012-12-03 04:19:29


Сэмплскриншот   скриншот   скриншот   скриншот   скриншот   скриншот  piratbit.org



Скачать Невидимый мир через торрент http://i1.imageban.ru/out/2013/01/09/52f6aa347855bc1252ba0af19c9a86c3.png Скачать фильм Невидимый мир через торрент бесплантно в хорошем качестве Описание: Фильм о любви двух южноафриканок во времена Апартеида (1950-е годы). Это повествование о любви двух женщин, живущих в очень ... 5 10 1
Info! Золотая раздача, скачанное не засчитывается.
Торрент: Зарегистрирован [2013-01-09 13:36] · скачан: 17 раз
Статус: √ проверено
Размер: 1.37 GB
Как cкачать? Как скачать Невидимый мир через торрент | qTorrent

% Раздел Тема Автор DL S | L
Документальные фильмы и телепередачи [ 701 MB ] Тайны невидимого мира / Mysteries of the Unseen World [2013 Документальный HDRip by _Один_777] VO Один 777 Скачать
1 | 0

28-11-2019 20:33  

Отключить всю рекламу на сайте

    Дорогой пользователь! Огромная просьба, поблагодарите релизера, оцените раздачу и оставьте свои комментарий, если Вы скачали Невидимый мир через торрент бесплатно! Внесите свою лепту в развитие PiratBit!
    Комментировать посты могут только пользователи прошедшие не сложную регистрацию
    Показать сообщения:    

    Невидимый мир через торрент
    Скачать бесплатно Невидимый мир
    Невидимый мир скачать торрент
    Невидимый мир смотреть онлайн
    Cкачать фильм Невидимый мир бесплатно
    Невидимый мир скачать торрент в хорошем качестве
    Невидимый мир смотреть онлайн бесплатно в хорошем качестве


    Вы не можете начинать темы
    Вы не можете отвечать на сообщения
    Вы не можете редактировать свои сообщения
    Вы не можете удалять свои сообщения
    Вы не можете голосовать в опросах
    Вы не можете прикреплять файлы к сообщениям
    Вы можете скачивать файлы