1 сезон

3 сезон

iTunes

1

iTunes

MVO

iTunes

13

1 сезон

RePack

30

Deluxe

pack

Лицензия

ВАЖНО

ИГРА 18+

pack

RePack

MK11

RePack

jed

RePack

fifa19

RePack

RDR2

RePack

NEED FOR SPEED™ PAYBACK

4 сезон

9 сезон

Бесстыжие 9 сезон

Все сериалы

все сериалы на PB.wtf

RePack

FAR CRY 5

Anonymous, добрый вечер, мы катастрофически не успеваем собрать деньги на оплату серверов, помогите нам пожалуйста 5,10,15р., для нас важна любая помощь . В качестве благодарности мы отключим Вам всю рекламу на сайте (укажите свой ник в строку Ваше имя)!

×
  
Magnet ссылка

Особняк с привидениями / The Haunted Mansion (Роб Минкофф) [2003 г., фэнтези, триллер, комедия, детектив, семейный, BDRip, DUB (Rus) + Професиональный двухголосый (Ukr) + Оригинал] piratbit.org

Особняк с привидениями через торрент piratbit.org

Размер: 1.45 GB | Добавлен: 8 лет 6 мес. назад | Торрент скачан:156 раз
Скачать  

09-01-2013 14:11 Особняк с привидениями Скачать торрент  

Особняк с привидениями / The Haunted Mansion
«Неохотно гостя».

Год выпуска: 2003
Страна: США
Жанр: фэнтези, триллер, комедия, детектив, семейный
Продолжительность: 01:27:56
Перевод: Дубляж + Профессиональный (двухголосый закадровый) - (Украинский - Новый канал) + Оригинал (Английский)

Режиссер: Роб Минкофф
Продюссер: Эндрю Ганн, Дон Хан, Бэрри Бернарди
Сценарий: Дэвид Беренбаум

Бюджет: $90 000 000
Премьера в мире: 26 ноября 2003

В ролях: Эдди Мерфи, Теренс Стэмп, Натаниель Паркер, Марша Томасон, Дженнифер Тилли, Уоллес Шоун, Дина Спайби, Марк Джон Джеффрис, Эри Дэвис, Джим Дуган, Рэйчел Харрис, Steve Hytner, Heather Juergensen, Джереми Ховард, Дип Рой, Клэй Мартинез, Бриджет Энн Брно, Грегг Лондон, Зэк Минкофф, Шелби Грим, Гарри Дж. Кэмпбелл

Описание: Боитесь привидений? Ну, тогда вам не стоит даже приближаться к старому мрачному особняку со скрипучими дверями и темными-претемными коридорами, особенно в сопровождении всего своего семейства, как это сделал беспечный бизнесмен Джим Иверс.
И уж тем более не следует быть замешанным в продаже такой недвижимости, облюбованной компанией дружных и проказливых призраков, которым совсем не улыбалось делить свой уютный жуткий уголок с нахальными и шумными людьми. Уступать никто не желает — и вот за дом начинается настоящая война нервов между семьей Джима и 999 каверзными духами. И у привидений в ней большое преимущество — у них нет нервов!..

Качество: BDRip (Исходник Blu-Ray)
Формат: AVI
Видео кодек: XviD
Аудио кодек: AC3
Видео: 720х304, 23,976 fps, 1768 kbps, 0.327 bit/pixel
Аудио#1: 48 kHz, AC3 2.0, 192.00 kbps / Дубляж
Аудио#2: 48 kHz, AC3 2.0, 192.00 kbps / Профессиональный (двухголосый закадровый) - (Украинский - Новый канал)
Аудио#3: 48 kHz, AC3 2.0, 192.00 kbps / Оригинал (Английский)
&
Общее
Полное имя : E:Фильмы МThe Haunted Mansion.2003.BDRip.Rus.Ukr.Eng.avi
Формат : AVI
Формат/Информация : Audio Video Interleave
Размер файла : 1,45 Гбайт
Продолжительность : 1 ч. 27 м.
Общий поток : 2363 Кбит/сек
Программа кодирования : VirtualDubModRus 1.5.10.2 (build 2542/release)
Библиотека кодирования : VirtualDubMod build 2542/release

Видео
Идентификатор : 0
Формат : MPEG-4 Visual
Профиль формата : Advanced Simple@L5
Параметр BVOP формата : 1
Параметр QPel формата : Нет
Параметр GMC формата : Без точки перехода
Параметр матрицы формата : Выборочная
Режим смешивания : Сжатый битовый поток
Идентификатор кодека : XVID
Идентификатор кодека/Подсказка : XviD
Продолжительность : 1 ч. 27 м.
Битрейт : 1768 Кбит/сек
Ширина : 720 пикселей
Высота : 304 пикселя
Соотношение сторон : 2,35:1
Частота кадров : 23,976 кадра/сек
Цветовое пространство : YUV
Субдискретизация насыщенности : 4:2:0
Битовая глубина : 8 бит
Тип развёртки : Прогрессивная
Метод сжатия : С потерями
Бит/(Пиксели*Кадры) : 0.337
Размер потока : 1,09 Гбайт (75%)
Библиотека кодирования : XviD 65

Аудио #1
Идентификатор : 1
Формат : AC-3
Формат/Информация : Audio Coding 3
Расширение режима : CM (complete main)
Параметр Endianness формата : Big
Идентификатор кодека : 2000
Продолжительность : 1 ч. 27 м.
Вид битрейта : Постоянный
Битрейт : 192 Кбит/сек
Каналы : 2 канала
Расположение каналов : Front: L R
Частота : 48,0 КГц
Битовая глубина : 16 бит
Метод сжатия : С потерями
Размер потока : 121 Мбайт (8%)
Выравнивание : Разделение по промежуткам
Продолжительность промежутка : 42 мс. (1,00 видеокадр)
Время предзагрузки промежутка : 500 мс.
Заголовок : Дубляж

Аудио #2
Идентификатор : 2
Формат : AC-3
Формат/Информация : Audio Coding 3
Расширение режима : CM (complete main)
Параметр Endianness формата : Big
Идентификатор кодека : 2000
Продолжительность : 1 ч. 27 м.
Вид битрейта : Постоянный
Битрейт : 192 Кбит/сек
Каналы : 2 канала
Расположение каналов : Front: L R
Частота : 48,0 КГц
Битовая глубина : 16 бит
Метод сжатия : С потерями
Размер потока : 121 Мбайт (8%)
Выравнивание : Разделение по промежуткам
Продолжительность промежутка : 42 мс. (1,00 видеокадр)
Время предзагрузки промежутка : 500 мс.
Заголовок : Профессиональный (двухголосый закадровый) - (Украинский - Новый канал)

Аудио #3
Идентификатор : 3
Формат : AC-3
Формат/Информация : Audio Coding 3
Расширение режима : CM (complete main)
Параметр Endianness формата : Big
Идентификатор кодека : 2000
Продолжительность : 1 ч. 27 м.
Вид битрейта : Постоянный
Битрейт : 192 Кбит/сек
Каналы : 2 канала
Расположение каналов : Front: L R
Частота : 48,0 КГц
Битовая глубина : 16 бит
Метод сжатия : С потерями
Размер потока : 121 Мбайт (8%)
Выравнивание : Разделение по промежуткам
Продолжительность промежутка : 42 мс. (1,00 видеокадр)
Время предзагрузки промежутка : 500 мс.
Заголовок : Оригинал (Английский)


Особняк с привидениями скачать торрент


piratbit.org



Скачать Особняк с привидениями через торрент http://i52.fastpic.ru/big/2013/0109/6e/b01ffdaeb2abe70ea39563495926706e.jpg Скачать фильм Особняк с привидениями через торрент бесплантно в хорошем качестве Описание: Боитесь привидений? Ну, тогда вам не стоит даже приближаться к старому мрачному особняку со скрипучими дверями и ... 9.7 10 3
Info! Золотая раздача, скачанное не засчитывается.
Торрент: Зарегистрирован [2013-01-09 14:11] · скачан: 156 раз
Статус: √ проверено
Размер: 1.45 GB
Как cкачать? Как скачать Особняк с привидениями через торрент | UTorrent

28-11-2019 20:33  

Отключить всю рекламу на сайте

    Дорогой пользователь! Огромная просьба, поблагодарите релизера, оцените раздачу и оставьте свои комментарий, если Вы скачали Особняк с привидениями через торрент бесплатно! Внесите свою лепту в развитие PiratBit!
    Комментировать посты могут только пользователи прошедшие не сложную регистрацию
    Показать сообщения:    

    Особняк с привидениями через торрент
    Скачать бесплатно Особняк с привидениями
    Особняк с привидениями скачать торрент
    Особняк с привидениями смотреть онлайн
    Cкачать фильм Особняк с привидениями бесплатно
    Особняк с привидениями скачать торрент в хорошем качестве
    Особняк с привидениями смотреть онлайн бесплатно в хорошем качестве


    Вы не можете начинать темы
    Вы не можете отвечать на сообщения
    Вы не можете редактировать свои сообщения
    Вы не можете удалять свои сообщения
    Вы не можете голосовать в опросах
    Вы не можете прикреплять файлы к сообщениям
    Вы можете скачивать файлы